Чоловік із Кентукі / The Kentuckian (1955) 1080i Ukr/Eng | sub Eng

Нові коментарі

Нова тема   Відповісти
Автор Повідомлення
Anonymous 







2018-01-13 23:30  
Чоловік із Кентукі / The Kentuckian (1955) 1080i Ukr/Eng | sub Eng

Чоловік із Кентукі / The Kentuckian (1955) 1080i Ukr/Eng | sub Eng


Жанр: драма, вестерн
Країна: США



Кіностудія / кінокомпанія: Hecht-Lancaster Productions
Режисер: Берт Ланкастер / Burt Lancaster
Актори: Берт Ланкастер (Burt Lancaster), Дайян Фостер (Dianne Foster), Діанна Лінн (Diana Lynn), Джон Макінтайр (John McIntire), Волтер Меттоу (Walter Matthau), Дональд МакДональд (Donald MacDonald)...

Сюжет:
20-і роки 19 століття. Великий Елі Вейкфілд і його син Маленький Елі - загартовані шукачі пригод. Для здійснення своєї давньої мрії - оселитися на кордоні Техасу, вони відправляються в подорож. Шлях виявляється не простий, але найскладніше боротися не з дикою природою, а з небезпечними людьми.


Тривалість: 01:39:33
Якість: 1080i
Відео:
кодек:
розмір кадру: 1920 х 1080
бітрейт: 5726 кб/с
частота кадрів: 25 к/с (fps)

Аудіо #1:
мова: українська
переклад: багатоголосий закадровий
кодек: MP2 2.0
бітрейт: 128 кб/с
запис звуку з каналу: АМС

Аудіо #2:
мова: англійська
переклад: оригінал
кодек: 2.0
бітрейт: 192 кб/с

Субтитри:
мова: англійська
тип: програмні (м'які)
формат: *.srt
Media info:
General
Unique ID : 226101911798708802878942456435294752601 (0xAA19A4ED050A953BA29DC3E6303E4F59)
Format :
Format version : Version 2
File size : 4.29 GiB
Duration : 1h 39mn
Overall bit rate : 6 169 Kbps
Movie name : The Kentuckian (1955) [ukr.AMC_eng] 1080i [Hurtom] by urij546724
Encoded date : UTC 2018-01-13 20:32:46
Writing application : mkvmerge v2.9.7 ('Tenderness') built on Jul 1 2009 18:43:35
Writing library : libebml v0.7.7 + libmatroska v0.8.1
DURATION : 01:37:36.038000000
NUMBER_OF_FRAMES : 914
NUMBER_OF_BYTES : 34332
_STATISTICS_WRITING_APP : mkvmerge v7.2.0 ('On Every Street') 64bit built on Sep 13 2014 15:52:10
_STATISTICS_WRITING_DATE_UTC : 2014-10-29 00:32:39
_STATISTICS_TAGS : BPS DURATION NUMBER_OF_FRAMES NUMBER_OF_BYTES

Video
ID : 1
Format : AVC
Format/Info : Advanced Video Codec
Format profile : [email protected]
Format settings, CABAC : Yes
Format settings, ReFrames : 3 frames
Codec ID : V_MPEG4/ISO/AVC
Duration : 1h 39mn
Bit rate : 5 726 Kbps
Width : 1 920 pixels
Height : 1 080 pixels
Display aspect ratio : 16:9
Frame rate mode : Constant
Frame rate : 25.000 fps
Standard : Component
Color space : YUV
Chroma subsampling : 4:2:0
Bit depth : 8 bits
Scan type : Interlaced
Scan order : Top Field First
Bits/(Pixel*Frame) : 0.110
Stream size : 3.98 GiB (93%)
Title : The Kentuckian (1955) [ukr.AMC_eng] 1080i [Hurtom] by urij546724
Default : Yes
Forced : No
Color primaries : BT.709
Transfer characteristics : BT.709
Matrix coefficients : BT.709

Audio #1
ID : 2
Format : MPEG Audio
Format version : Version 1
Format profile : Layer 2
Codec ID : A_MPEG/L2
Codec ID/Hint : MP2
Duration : 1h 39mn
Bit rate mode : Constant
Bit rate : 128 Kbps
Channel count : 2 channels
Sampling rate : 48.0 KHz
Compression mode : Lossy
Delay relative to video : 224ms
Stream size : 91.1 MiB (2%)
Title : Українська доріжка
Language : Ukrainian
Default : Yes
Forced : Yes

Audio #2
ID : 3
Format : AC-3
Format/Info : Audio Coding 3
Mode extension : CM (complete main)
Format settings, Endianness : Big
Codec ID : A_AC3
Duration : 1h 39mn
Bit rate mode : Constant
Bit rate : 192 Kbps
Channel count : 2 channels
Channel positions : Front: L R
Sampling rate : 48.0 KHz
Bit depth : 16 bits
Compression mode : Lossy
Stream size : 137 MiB (3%)
Title : Оригінальна доріжка
Language : English
Default : No
Forced : No

Text
ID : 4
Format : UTF-8
Codec ID : S_TEXT/UTF8
Codec ID/Info : UTF-8 Plain Text
Title : subtitle eng
Language : English
Default : Yes
Forced : No
Скріншоти:





Трейлер:
Семпл
Джерело 1_________Джерело 2_________Джерело 3_________Джерело 4_________Джерело 5
У випадку, якщо з усіх джерел семпл видалять, прохання повідомити мені у ПРИВАТ


Подяка:

1. Пану Sando7 за запис звуку з ТБ.


Джерело:


Срібний реліз (на рейтинг впливає 50% завантаженого)
 Трекер:    Зареєстрований   

Завантажити / скачати фільм українською



відео для новачків



 Зареєстрований:   2018-01-13 23:30
 Розмір:   4.29 GB 
 Оцінка фільму:   10/10 (Голосів: 3)
 Прохання залишати коментарі і не тікати з роздачі.
   
Ваш часовий пояс: GMT + 2 Години

Нова тема   Відповісти