Пінк Флойд - Помпеї / Pink Floyd - Live At Pompeii (1971/2002) / 720p Eng | sub Ukr

Нові коментарі

Нова тема   Відповісти

Увійдіть, щоб проголосувати
Автор Повідомлення
11994455 
Попереджень: 1
Попереджень: 1 


З нами з: 07.04.14
Востаннє: 01.06.20
Повідомлень: 526

2018-01-13 17:47  
Пінк Флойд - Помпеї / Pink Floyd - Live At Pompeii (1971/2002) / 720p Eng | sub Ukr

Пінк Флойд - Помпеї / Pink Floyd - Live At Pompeii (1971/2002) / 720p Eng | sub Ukr


Жанр: Art rock
Країна: Велика Британія



Кінокомпанія: Universal Studios
Режисер: Едріан Мабен
Актори: Р. Вотерс, Д. Гілмор, Н. Мейсон, Р. Райт

Сюжет:
Pink Floyd: Live at Pompeii - музичний фільм . Зйомки концерту групи Pink Floyd на стародавніх руїнах амфітеатру Помпей в Італії. У 2003 році вийшло перевидання на DVD. У нього включені інтерв'ю музикантів режисерові, моменти запису альбому The Dark Side of the Moon в студії на Abbey Road. Безпосередньо виступ було записано з 4 по 7 жовтня 1971 року.


Тривалість 1: 01:00:01 (Pink Floyd - Live at Pompeii(1971))
Тривалість 2: 01:34:04 (Pink Floyd - Live at Pompeii(2002))
Тривалість 3: 00:24:10 (Pink Floyd - Live at Pompeii(2002)-interview)

Якість: / 720p

Відео 1:
кодек:
розмір кадру: 960 х 720
бітрейт: 2544 кб/с

Відео 2:
кодек:
розмір кадру: 1280 х 720
бітрейт: 3574 кб/с

Відео 3:
кодек:
розмір кадру: 720 х 480
бітрейт: 2984 кб/с

Аудіо:
мова: англійська
переклад: оригінал
кодек: AС3 2.0
бітрейт: 384 кб/с

Субтитри:
мова: українська
тип: програмні (м'які)
формат: *.srt
Джерело: Власне виробництво
Медіаінфо 1

General
Unique ID : 224019274038306009483699648197364730975 (0xA8888AF4E08288DC949508C926F6CC5F)
Complete name : G:\+++\+\Pink Floyd\Echo\Pink Floyd - Live at Pompeii\Pink Floyd - Live at Pompeii(1971).
Format :
Format version : Version 4 / Version 2
File size : 1.22 GiB
Duration : 1 h 0 min
Overall bit rate : 2 919 kb/s
Encoded date : UTC 2018-01-13 10:31:18
Writing application : v8.8.0 ('Wind at my back') 64bit
Writing library : libebml v1.3.3 + v1.4.4
Attachments : pink_floyd_pompeii_wallpaper_by_ineedfire.png

Video
ID : 1
Format : AVC
Format/Info : Advanced Video Codec
Format profile : [email protected]
Format settings, CABAC : Yes
Format settings, ReFrames : 3 frames
Codec ID : V_MPEG4/ISO/AVC
Duration : 1 h 0 min
Bit rate : 2 544 kb/s
Width : 960 pixels
Height : 720 pixels
Display aspect ratio : 4:3
Frame rate mode : Constant
Frame rate : 25.000 FPS
Color space : YUV
Chroma subsampling : 4:2:0
Bit depth : 8 bits
Scan type : Progressive
Bits/(Pixel*Frame) : 0.147
Stream size : 1.06 GiB (87%)
Writing library : core 112
Encoding settings : cabac=1 / ref=3 / deblock=1:0:0 / analyse=0x3:0x113 / me=hex / subme=7 / psy=1 / psy_rd=1.00:0.00 / mixed_ref=1 / me_range=16 / chroma_me=1 / trellis=1 / 8x8dct=1 / cqm=0 / deadzone=21,11 / fast_pskip=1 / chroma_qp_offset=-2 / threads=1 / sliced_threads=0 / nr=0 / decimate=1 / interlaced=0 / constrained_intra=0 / bframes=3 / b_pyramid=0 / b_adapt=1 / b_bias=0 / direct=1 / weightb=1 / open_gop=0 / weightp=2 / keyint=250 / keyint_min=25 / scenecut=40 / intra_refresh=0 / rc_lookahead=40 / rc=abr / mbtree=1 / bitrate=2544 / ratetol=1.0 / qcomp=0.60 / qpmin=10 / qpmax=51 / qpstep=4 / ip_ratio=1.41 / aq=1:1.00
Default : Yes
Forced : No

Audio
ID : 2
Format : AC-3
Format/Info : Audio Coding 3
Mode extension : CM (complete main)
Format settings, Endianness : Big
Codec ID : A_AC3
Duration : 1 h 0 min
Bit rate mode : Constant
Bit rate : 384 kb/s
Channel(s) : 2 channels
Channel positions : Front: L R
Sampling rate : 44.1 kHz
Frame rate : 28.711 FPS (1536 spf)
Bit depth : 16 bits
Compression mode : Lossy
Stream size : 165 MiB (13%)
Default : Yes
Forced : No

Text
ID : 3
Format : UTF-8
Codec ID : S_TEXT/UTF8
Codec ID/Info : UTF-8 Plain Text
Duration : 55 min 36 s
Bit rate : 14 b/s
Count of elements : 64
Stream size : 5.76 KiB (0%)
Default : Yes
Forced : No
Медіаінфо 2

General
Unique ID : 195813936734664843677445540607557386147 (0x9350647632C7DF869CF2A3E6FACC3FA3)
Complete name : C:\Users\Admin\Downloads\Pink Floyd - Live at Pompeii\Pink Floyd - Live at Pompeii(2002).
Format :
Format version : Version 4 / Version 2
File size : 2.51 GiB
Duration : 1 h 31 min
Overall bit rate : 3 952 kb/s
Encoded date : UTC 2018-01-13 10:34:39
Writing application : v8.8.0 ('Wind at my back') 64bit
Writing library : libebml v1.3.3 + v1.4.4
Attachments : pink_floyd_pompeii_wallpaper_by_ineedfire.png

Video
ID : 1
Format : AVC
Format/Info : Advanced Video Codec
Format profile : [email protected]
Format settings, CABAC : Yes
Format settings, ReFrames : 3 frames
Codec ID : V_MPEG4/ISO/AVC
Duration : 1 h 31 min
Bit rate : 3 574 kb/s
Width : 1 280 pixels
Height : 720 pixels
Display aspect ratio : 16:9
Frame rate mode : Constant
Frame rate : 29.970 (29970/1000) FPS
Color space : YUV
Chroma subsampling : 4:2:0
Bit depth : 8 bits
Scan type : Progressive
Bits/(Pixel*Frame) : 0.129
Stream size : 2.27 GiB (90%)
Writing library : core 112
Encoding settings : cabac=1 / ref=3 / deblock=1:0:0 / analyse=0x3:0x113 / me=hex / subme=7 / psy=1 / psy_rd=1.00:0.00 / mixed_ref=1 / me_range=16 / chroma_me=1 / trellis=1 / 8x8dct=1 / cqm=0 / deadzone=21,11 / fast_pskip=1 / chroma_qp_offset=-2 / threads=1 / sliced_threads=0 / nr=0 / decimate=1 / interlaced=0 / constrained_intra=0 / bframes=3 / b_pyramid=0 / b_adapt=1 / b_bias=0 / direct=1 / weightb=1 / open_gop=0 / weightp=2 / keyint=250 / keyint_min=25 / scenecut=40 / intra_refresh=0 / rc_lookahead=40 / rc=abr / mbtree=1 / bitrate=3574 / ratetol=1.0 / qcomp=0.60 / qpmin=10 / qpmax=51 / qpstep=4 / ip_ratio=1.41 / aq=1:1.00
Default : Yes
Forced : No

Audio
ID : 2
Format : AC-3
Format/Info : Audio Coding 3
Mode extension : CM (complete main)
Format settings, Endianness : Big
Codec ID : A_AC3
Duration : 1 h 31 min
Bit rate mode : Constant
Bit rate : 384 kb/s
Channel(s) : 2 channels
Channel positions : Front: L R
Sampling rate : 44.1 kHz
Frame rate : 28.711 FPS (1536 spf)
Bit depth : 16 bits
Compression mode : Lossy
Stream size : 250 MiB (10%)
Default : Yes
Forced : No

Text
ID : 3
Format : UTF-8
Codec ID : S_TEXT/UTF8
Codec ID/Info : UTF-8 Plain Text
Duration : 1 h 23 min
Bit rate : 45 b/s
Count of elements : 312
Stream size : 27.8 KiB (0%)
Default : Yes
Forced : No
Медіаінфо 3

General
Unique ID : 222277375524314350624190215492684135104 (0xA73910BAA901B4A1B49E7E6214B6BAC0)
Complete name : G:\+++\+\Pink Floyd\Echo\Pink Floyd - Live at Pompeii\Pink Floyd - Live at Pompeii(2002)-interview.
Format :
Format version : Version 4 / Version 2
File size : 583 MiB
Duration : 24 min 10 s
Overall bit rate : 3 370 kb/s
Encoded date : UTC 2018-01-13 10:19:16
Writing application : v8.8.0 ('Wind at my back') 64bit
Writing library : libebml v1.3.3 + v1.4.4
Attachments : pink_floyd_pompeii_wallpaper_by_ineedfire.png

Video
ID : 1
Format : MPEG-4 Visual
Format settings, BVOP : 2
Format settings, QPel : No
Format settings, GMC : No warppoints
Format settings, Matrix : Default (H.263)
Codec ID : V_MPEG4/ISO/ASP
Codec ID/Info : Advanced Simple Profile
Duration : 24 min 10 s
Bit rate : 2 984 kb/s
Nominal bit rate : 9 708 kb/s
Width : 720 pixels
Height : 480 pixels
Display aspect ratio : 3:2
Frame rate mode : Constant
Frame rate : 29.970 (29970/1000) FPS
Standard : NTSC
Color space : YUV
Chroma subsampling : 4:2:0
Bit depth : 8 bits
Scan type : Progressive
Compression mode : Lossy
Bits/(Pixel*Frame) : 0.288
Stream size : 516 MiB (89%)
Writing library : DivX 6.8.5 (UTC 2009-08-20)
Default : Yes
Forced : No

Audio
ID : 2
Format : AC-3
Format/Info : Audio Coding 3
Mode extension : CM (complete main)
Format settings, Endianness : Big
Codec ID : A_AC3
Duration : 24 min 10 s
Bit rate mode : Constant
Bit rate : 384 kb/s
Channel(s) : 2 channels
Channel positions : Front: L R
Sampling rate : 44.1 kHz
Frame rate : 28.711 FPS (1536 spf)
Bit depth : 16 bits
Compression mode : Lossy
Delay relative to video : -33 ms
Stream size : 66.4 MiB (11%)
Default : Yes
Forced : No

Text
ID : 3
Format : UTF-8
Codec ID : S_TEXT/UTF8
Codec ID/Info : UTF-8 Plain Text
Duration : 23 min 59 s
Bit rate : 186 b/s
Count of elements : 333
Stream size : 32.7 KiB (0%)
Default : Yes
Forced : No
Скріншоти


Джерело: Ютуб
Особиста оцінка: 10 - без зайвих вагань рекомендую всім!


Золотий реліз (завантажене не впливає на рейтинг)
 Трекер:    Зареєстрований   

Завантажити / скачати кліп українською



відео для новачків



 Зареєстрований:   2018-01-13 18:10
 Розмір:   4.31 GB 
 Оцінка кліпу:   9.9/10 (Голосів: 9)
   
11994455 
Попереджень: 1
Попереджень: 1 


З нами з: 07.04.14
Востаннє: 01.06.20
Повідомлень: 526

2018-01-14 17:24  
Зробив саби до Pink Floyd - Live at Pompeii https://toloka.to/t86503 Перепочив - подивився як Бумбокс зіграв разом з Дейвом Гілмором, майже сам зробив фільм Pink Floyd Dark Side Of The Moon Quadraphonic https://toloka.to/t88436 Лишилось ще зробити саби до Wish You Were Here і The Wall і буде ще 2 фільми Флойдів ..... І ТУТ ПОБАЧИВ ЯК РОДЖЕР ВОТЕРС ЛИЖЕ СРАКУ ПУТІНУ НА РАША ТУДЕЙ... https://youtu.be/wQmb0tRyfbk ... я незнаю що робити - Крик душі...
11FrYkT 
Модератор відео


З нами з: 20.02.11
Востаннє: 01.06.20
Повідомлень: 6887

2018-01-14 22:50  
11994455 , жоден скріншот не відповідає вказаним розмірам. Зробіть з кожного відео по 3 скріни, на 1 з них мають бути саби, також вкажіть їх джерело

Додано через 2 години 9 хвилин 49 секунд:

11FrYkT написано:
ь з кожного відео по 3 скріни, на 1 з них мають бути саби,

І знову не відповідають, читайте УВАЖНО

Додано через 32 хвилини 49 секунд:

11994455 , перед тим як їх сюди заливати Ви на розмір дивитеся??????????????????

[Captain] 
VIP


З нами з: 19.02.12
Востаннє: 01.06.20
Повідомлень: 2273

2018-01-14 23:12  
Шедевр. Ріп зі зібрки The Early Years?
11994455 
Попереджень: 1
Попереджень: 1 


З нами з: 07.04.14
Востаннє: 01.06.20
Повідомлень: 526

2018-01-14 23:50  
Кого там скачав з Ютюба (там нема)- вийшло в HD Хоча тут максимум DVD тягне (і думаю більшої якості ніде немає) ...
[Captain] 
VIP


З нами з: 19.02.12
Востаннє: 01.06.20
Повідомлень: 2273

2018-01-15 00:13  
11994455
чому тоді написали що бдріп?

bot 
робот


З нами з: 30.09.07
Востаннє: 26.05.05
Повідомлень: 24608

2018-05-14 09:46  
Тему перенесено з АртХаус до форуму Неоформлене відео


11FrYkT

Ваш часовий пояс: GMT + 2 Години

Нова тема   Відповісти