Коматозники / Flatliners (2017) Remux 1080p Ukr/Eng | Sub Ukr/Eng

Нові коментарі

Нова тема   Відповісти
Автор Повідомлення
staf777 
Відео Гуртом - підтримка та поширення
Відео Гуртом - підтримка та поширення


З нами з: 16.11.16
Востаннє: 24.05.19
Повідомлень: 2382

2018-01-13 17:43  
Коматозники / Flatliners (2017) Remux 1080p Ukr/Eng | Sub Ukr/Eng

Коматозники / Flatliners (2017) Remux 1080p Ukr/Eng | Sub Ukr/Eng


Жанр: драма, трилер, фантастика, жахи
Країна: США



Кінокомпанія: Cross Creek Pictures, Furthur Films, Laurence Mark Productions
Режисер: Нільс Арден Оплев
Актори: Ніна Добрев, Еллен Пейдж, Шарлотта МакКінні, Дієго Луна, Кіфер Сазерленд, Джеймс Нортон, Кірсі Клемонс, Бо Мірчофф

Сюжет:
Студенти-медики експериментують з досвідом «близької смерті», який пов'язаний з минулими трагедіями, поки небезпечні наслідки не ставлять під загрозу їх життя.


Тривалість: 01:49:46
Якість: Remux 1080p
Відео:
кодек:
розмір кадру: 1920x1080
бітрейт: 24,9 Mб/с

Аудіо # 1:
мова: українська
переклад: професійний дубльований
кодек: 5.1
бітрейт: 384 кб/с

Аудіо # 2:
мова: англійська
переклад: оригінал
кодек: -HD MA 5.1
бітрейт: 2196 кб/с

Субтитри # 1-2:
мова: українська (форсовані, повні)
тип: програмні (м'які)
формат: *.srt

Субтитри # 3-4:
мова: англійська (повні, SDH)
тип: програмні (м'які)
формат: *.srt
Info
General
Unique ID : 170524348767496809680827115974414599241 (0x8049CB821860240E98049B83E4488449)
Complete name : P:\HD українською » Фільми в HD\Жахи\Flatliners (2017) BDRemux1080p [Ukr][Eng][ Sub UkrEng][Hurtom].
Format :
Format version : Version 4 / Version 2
File size : 20.9 GiB
Duration : 1 h 49 min
Overall bit rate mode : Variable
Overall bit rate : 27.3 Mb/s
Movie name : Flatliners (2017) BDRemux1080p Ukr/Eng | Sub Ukr/Eng
Encoded date : UTC 2018-01-13 17:45:07
Writing application : v9.8.0 ('Kuglblids') 64bit
Writing library : libebml v1.3.4 + v1.4.5

Video
ID : 1
Format : AVC
Format/Info : Advanced Video Codec
Format profile : [email protected]
Format settings, CABAC : Yes
Format settings, ReFrames : 2 frames
Format settings, GOP : M=1, N=10
Codec ID : V_MPEG4/ISO/AVC
Duration : 1 h 49 min
Bit rate mode : Variable
Bit rate : 24.9 Mb/s
Width : 1 920 pixels
Height : 1 080 pixels
Display aspect ratio : 16:9
Frame rate mode : Constant
Frame rate : 23.976 (24000/1001) FPS
Color space : YUV
Chroma subsampling : 4:2:0
Bit depth : 8 bits
Scan type : Progressive
Bits/(Pixel*Frame) : 0.501
Stream size : 19.1 GiB (91%)
Title : Flatliners (2017)
Language : English
Default : Yes
Forced : No

Audio #1
ID : 2
Format : AC-3
Format/Info : Audio Coding 3
Mode extension : CM (complete main)
Format settings, Endianness : Big
Codec ID : A_AC3
Duration : 1 h 49 min
Bit rate mode : Constant
Bit rate : 384 kb/s
Channel(s) : 6 channels
Channel positions : Front: L C R, Side: L R, LFE
Sampling rate : 48.0 kHz
Frame rate : 31.250 FPS (1536 spf)
Bit depth : 16 bits
Compression mode : Lossy
Stream size : 301 MiB (1%)
Title : [UA-DUB-DVD]
Language : Ukrainian
Default : Yes
Forced : Yes

Audio #2
ID : 3
Format :
Format/Info : Digital Theater Systems
Format profile : MA / Core
Mode : 16
Format settings, Endianness : Big
Codec ID : A_DTS
Duration : 1 h 49 min
Bit rate mode : Variable / Constant
Bit rate : 2 196 kb/s / 1 509 kb/s
Channel(s) : 6 channels
Channel positions : Front: L C R, Side: L R, LFE
Sampling rate : 48.0 kHz
Frame rate : 93.750 FPS (512 spf)
Bit depth : 16 bits
Compression mode : Lossless / Lossy
Stream size : 1.68 GiB (8%)
Title : Original
Language : English
Default : No
Forced : No

Text #1
ID : 4
Format : UTF-8
Codec ID : S_TEXT/UTF8
Codec ID/Info : UTF-8 Plain Text
Duration : 1 h 47 min
Bit rate : 0 b/s
Count of elements : 10
Stream size : 475 Bytes (0%)
Default : Yes
Forced : Yes

Text #2
ID : 5
Format : UTF-8
Codec ID : S_TEXT/UTF8
Codec ID/Info : UTF-8 Plain Text
Duration : 1 h 48 min
Bit rate : 73 b/s
Count of elements : 1263
Stream size : 57.8 KiB (0%)
Default : No
Forced : No

Text #3
ID : 6
Format : UTF-8
Codec ID : S_TEXT/UTF8
Codec ID/Info : UTF-8 Plain Text
Duration : 1 h 43 min
Bit rate : 47 b/s
Count of elements : 1241
Stream size : 36.1 KiB (0%)
Title : Full
Language : English
Default : No
Forced : No

Text #4
ID : 7
Format : UTF-8
Codec ID : S_TEXT/UTF8
Codec ID/Info : UTF-8 Plain Text
Duration : 1 h 46 min
Bit rate : 59 b/s
Count of elements : 1693
Stream size : 46.5 KiB (0%)
Title : SDH
Language : English
Default : No
Forced : No
Скріншоти



Подяка пану Hanway за синхронізацію.

Джерело:
Особиста оцінка: 8 - мені сподобалося


Золотий реліз (завантажене не впливає на рейтинг)
 Трекер:    Зареєстрований   

Завантажити / скачати фільм українською



відео для новачків



 Зареєстрований:   2018-03-28 17:31
 Розмір:   21.08 GB 
 Оцінка фільму:   7.4/10 (Голосів: 22)
   
Інші релізи
bot 
робот


З нами з: 30.09.07
Востаннє: 26.05.05
Повідомлень: 21378

2018-01-13 17:43  
Тему перенесено з Фільми в HD до форуму Анонси релізів


staf777

bot 
робот


З нами з: 30.09.07
Востаннє: 26.05.05
Повідомлень: 21378

2018-01-13 20:20  
Тему перенесено з Анонси релізів до форуму Фільми в HD


staf777

igor911 
Модератор відео


З нами з: 18.01.08
Востаннє: 24.05.19
Повідомлень: 12539

2018-01-13 22:19  
staf777, ти забув додати сюди повні укр.субтитри. Перемуксуй, будь ласка, файл.

Додано через 1 хвилину 4 секунди:

staf777 написано:
Count of elements : 10

це форсовані (10 фраз), треба додати ще повні субтитри.

Додано через 3 хвилини 42 секунди:

і розділи 2 рази потрапили
Цитата:
Menu #1
00:00:00.000 : en:00:00:00.000

Menu #2


Додано через 1 годину 50 хвилин 48 секунд:

реліз оновлено - додано повні українські субтитри.

Virake 
Попереджень: 1
Попереджень: 1 


З нами з: 07.07.09
Востаннє: 24.05.19
Повідомлень: 6022

2018-01-14 14:43  
глянемо-глянемо, як перезняли один із моїх улюблених фільмів.
leon61 
Свій


З нами з: 09.09.08
Востаннє: 17.05.19
Повідомлень: 67

2018-01-16 02:50  
Мені теж перший фільм з Джулією Робертс подобався. Але цей ремейк - це фіаско.
Garikafterwork 
Новенький


З нами з: 02.10.12
Востаннє: 22.05.19
Повідомлень: 10

2018-01-16 12:34  
Не вистачило сил додивитися до кінця... ((((
Перший фільм у рази кращий!
А це таке... Шопопало...

Uberwinder 
VIP


З нами з: 18.11.16
Востаннє: 24.05.19
Повідомлень: 277

2018-02-24 08:49  
А як на мене, то не шедевр, але один раз переглянути можна...
antik_2008 
Релізер і модератор відео


З нами з: 20.10.08
Востаннє: 24.05.19
Повідомлень: 1992

2018-03-25 22:26  
На один раз
staf777 
Відео Гуртом - підтримка та поширення
Відео Гуртом - підтримка та поширення


З нами з: 16.11.16
Востаннє: 24.05.19
Повідомлень: 2382

2018-03-28 17:25  
27.03.2018 Роздачу оновлено

Замінив звук з

igor911 
Модератор відео


З нами з: 18.01.08
Востаннє: 24.05.19
Повідомлень: 12539

2018-03-28 17:33  
staf777 написано:
Bit rate : 192 kb/s

онови медіаінфо

Ваш часовий пояс: GMT + 2 Години

Нова тема   Відповісти