Нещадний / Faster (2010) Remux 1080p 2xUkr/Eng | Sub Ukr/Eng

Нові коментарі

Нова тема   Відповісти
Автор Повідомлення
staf777 
Попереджень: 1
Попереджень: 1 


З нами з: 16.11.16
Востаннє: 13.12.18
Повідомлень: 1909

2018-01-13 12:59  
Нещадний / Faster (2010) Remux 1080p 2xUkr/Eng | Sub Ukr/Eng

Нещадний / Faster (2010) Remux 1080p 2xUkr/Eng | Sub Ukr/Eng


Жанр: бойовик, трилер, драма, кримінальний
Країна: США



Кінокомпанія: CBS Films, TriStar Pictures, Castle Rock Entertainment, State Street Pictures
Режисер: Джордж Тіллман мол. / George Tillman Jr.
Актори: Двейн Джонсон / Dwayne Johnson, Біллі Боб Торнтон / Billy Bob Thornton, Олівер Джексон Коен / Oliver Jackson-Cohen, Меґі Ґрейс / Maggie Grace, Майк Еппс / Mike Epps, Том Беренджер / Tom Berenger, Карла Ґуджино / Carla Gugino, Мун Бладґуд / Moon Bloodgood, Джон Сайріґліано / John Cirigliano та інші

Сюжет:
Він провів багато часу за ґратами, щоб придумати план помсти за вбивство брата. Йому потрібні лише дві речі: швидкий автомобіль та надійна зброя. Бо його формула справедливості проста - швидкість, влучність та жодних компромісів.


Тривалість: 01:37:57
Якість: Remux 1080p
Відео:
кодек:
розмір кадру: 1920x1080
бітрейт: 25.5 Mб/с

Аудіо # 1:
мова: українська
переклад: професійний дубльований
кодек: 5.1
бітрейт: 640 кб/с

Аудіо # 2:
мова: українська
переклад: багатоголосий закадровий
кодек: 2.0
бітрейт: 192 кб/с

Аудіо # 3:
мова: англійська
переклад: оригінал
кодек: -HD MA 5.1
бітрейт: 2971 кб/с

Джерело озвучення:


Субтитри:
мова: українська
тип: пререндерні
формат: *.pgs

Субтитри:
мова: англійська
тип: пререндерні
формат: *.pgs
Info
General
Unique ID : 209555764090308797215608120797957077924 (0x9DA6F8DC12AF64207A0AD1B0BFDE3BA4)
Complete name : P:\HD українською » Фільми в HD\Бойовик\Faster (2010) Remux 1080p [2xUKR_ENG] [Hurtom].
Format :
Format version : Version 4 / Version 2
File size : 20.0 GiB
Duration : 1 h 37 min
Overall bit rate mode : Variable
Overall bit rate : 29.3 Mb/s
Movie name : Faster (2010) Remux 1080p [2xUKR_ENG] [Hurtom]
Encoded date : UTC 2018-09-23 11:12:38
Writing application : v24.0.0 ('Beyond The Pale') 64-bit
Writing library : libebml v1.3.6 + v1.4.9
Cover : Yes
Attachments : cover.jpg

Video
ID : 1
Format : AVC
Format/Info : Advanced Video Codec
Format profile : [email protected]
Format settings : CABAC / 2 Ref Frames
Format settings, CABAC : Yes
Format settings, ReFrames : 2 frames
Format settings, GOP : M=1, N=10
Codec ID : V_MPEG4/ISO/AVC
Duration : 1 h 37 min
Bit rate mode : Variable
Bit rate : 25.5 Mb/s
Width : 1 920 pixels
Height : 1 080 pixels
Display aspect ratio : 16:9
Frame rate mode : Constant
Frame rate : 23.976 (24000/1001) FPS
Color space : YUV
Chroma subsampling : 4:2:0
Bit depth : 8 bits
Scan type : Progressive
Bits/(Pixel*Frame) : 0.512
Stream size : 17.4 GiB (87%)
Title : Нещадний / Faster (2010)
Default : Yes
Forced : No

Audio #1
ID : 2
Format : AC-3
Format/Info : Audio Coding 3
Codec ID : A_AC3
Duration : 1 h 37 min
Bit rate mode : Constant
Bit rate : 640 kb/s
Channel(s) : 6 channels
Channel positions : Front: L C R, Side: L R, LFE
Sampling rate : 48.0 kHz
Frame rate : 31.250 FPS (1536 SPF)
Bit depth : 16 bits
Compression mode : Lossy
Stream size : 448 MiB (2%)
Title : [UA-DUB] [BD CEE]
Language : Ukrainian
Service kind : Complete Main
Default : Yes
Forced : Yes

Audio #2
ID : 3
Format : AC-3
Format/Info : Audio Coding 3
Codec ID : A_AC3
Duration : 1 h 37 min
Bit rate mode : Constant
Bit rate : 192 kb/s
Channel(s) : 2 channels
Channel positions : Front: L R
Sampling rate : 48.0 kHz
Frame rate : 31.250 FPS (1536 SPF)
Bit depth : 16 bits
Compression mode : Lossy
Stream size : 135 MiB (1%)
Title : [UA-MVO]
Language : Ukrainian
Service kind : Complete Main
Default : No
Forced : No

Audio #3
ID : 4
Format :
Format/Info : Digital Theater Systems
Format profile : MA / Core
Codec ID : A_DTS
Duration : 1 h 37 min
Bit rate mode : Variable / Constant
Bit rate : 2 971 kb/s / 1 509 kb/s
Channel(s) : 6 channels
Channel positions : Front: L C R, Side: L R, LFE
Sampling rate : 48.0 kHz
Frame rate : 93.750 FPS (512 SPF)
Bit depth : 24 bits
Compression mode : Lossless / Lossy
Stream size : 2.03 GiB (10%)
Title : [Original]
Language : English
Default : No
Forced : No

Text #1
ID : 5
Format : PGS
Muxing mode : zlib
Codec ID : S_HDMV/PGS
Codec ID/Info : Picture based subtitle format used on BDs/HD-DVDs
Duration : 1 h 31 min
Bit rate : 18.1 kb/s
Count of elements : 1670
Stream size : 11.9 MiB (0%)
Language : Ukrainian
Default : No
Forced : No

Text #2
ID : 6
Format : PGS
Muxing mode : zlib
Codec ID : S_HDMV/PGS
Codec ID/Info : Picture based subtitle format used on BDs/HD-DVDs
Duration : 1 h 31 min
Bit rate : 22.9 kb/s
Count of elements : 1628
Stream size : 15.0 MiB (0%)
Language : English
Default : No
Forced : No
Скріншоти



За дубльовану доріжку дякую пану karvai0
За запис з ICTV дякую пану РОМЕО та пану Arsenfpu за синхронізацію
Джерело: &
Особиста оцінка: 8 - мені сподобалося


Золотий реліз (завантажене не впливає на рейтинг)
 Трекер:    Зареєстрований   

Завантажити / скачати фільм українською



відео для новачків



 Зареєстрований:   2018-09-23 14:07
 Розмір:   20.03 GB 
 Оцінка фільму:   7.5/10 (Голосів: 11)
   
Інші релізи
   Нещадний / Faster (2010) AVC 2хUkr/Eng | Sub Eng staf777  5 / 0   2.99 GB   2018-09-20 19:27 
   Нещадний (Швидше кулі) / Faster (2010) 2xUkr/Eng Arsenfpu  6 / 0   2.1 GB   2016-07-02 18:41 
   Нещадний / Faster (2010) 1080p Ukr/Eng | Sub Ukr/Eng igor911  1 / 0   7.32 GB   2013-07-21 10:21 
   Нещадний / Швидше / Faster (2010) 720p Ukr/Eng | Sub Ukr/Eng Hurtomivets'  1 / 0   4.22 GB   2011-06-16 21:23 
staf777 
Попереджень: 1
Попереджень: 1 


З нами з: 16.11.16
Востаннє: 13.12.18
Повідомлень: 1909

2018-09-23 14:12  
Додав доріжку 
Ваш часовий пояс: GMT + 2 Години

Нова тема   Відповісти