Я - Легенда [Театральна версія] / I Am Legend [Theatrical version] (2007) Remux 1080p Ukr/Eng | Sub Ukr/Eng

Нові коментарі

Нова тема   Відповісти
Автор Повідомлення
staf777 
Попереджень: 1
Попереджень: 1 


З нами з: 16.11.16
Востаннє: 21.01.18
Повідомлень: 578

2018-01-13 11:48  
Я - Легенда [Театральна версія] / I Am Legend [Theatrical version] (2007) Remux 1080p Ukr/Eng | Sub Ukr/Eng

Я - Легенда [Театральна версія] / I Am Legend [Theatrical version] (2007) Remux 1080p Ukr/Eng | Sub Ukr/Eng


Жанр: фантастика, трилер, драма, жахи
Країна: США



Кінокомпанія: Warner Bros. Pictures, Village Roadshow Pictures, Weed Road Pictures
Режисер: Френсіс Лоуренс
Актори: Вілл Сміт, Еліс Брага, Чарлі Тахан, Саллі Річардсон, Дарел Фостер, Ейпріл Грейс

Сюжет:
Адаптація однойменного роману Річарда Метісона про невідомий вірус, що знищив більше половини населення земної кулі, а решту перетворив на вампірів. Сюжет будується навколо єдиної вцілілої людини з імунітетом, що по ночах тримає нескінченну облогу, а вдень намагається знайти протиотруту та з'ясувати причини епідемії.


Тривалість: 01:40:31 [Театральна версія] - відмінності театральної та альтернативної версій (обережно, спойлер!)
Якість: Remux 1080p
Відео:
кодек: VC-1
розмір кадру: 1920x1080
бітрейт: 16143 кб/с

Аудіо # 1:
мова: українська
переклад: професійний дубльований
кодек: 5.1
бітрейт: 448 кб/с

Аудіо # 2:
мова: англійська
переклад: оригінал
кодек: МА 5.1
бітрейт: 2199 кб/с

Аудіо # 3:
мова: англійська
переклад: оригінал
кодек: 5.1
бітрейт: 448 кб/с

Джерело озвучення:


Субтитри # 1-2:
мова: українська (форсовані, повні)
тип: програмні (м'які)
формат: *.srt

Субтитри # 3-4:
мова: англійська
тип: програмні (м'які)
формат: *.srt
Info
General
Unique ID : 193676302449140244730982052317734683902 (0x91B4B2F45175481F8EF488DB3514C4FE)
Complete name : K:\Фільми HD\Жахи\Я - легенда (1).
Format :
Format version : Version 4 / Version 2
File size : 13.5 GiB
Duration : 1 h 40 min
Overall bit rate : 19.2 Mb/s
Movie name : I Am Legend [Theatrical version] (2007) Remux 1080p Ukr/Eng | Sub Ukr/Eng[Hurtom]
Encoded date : UTC 2018-01-14 10:55:36
Writing application : mkvmerge v9.8.0 ('Kuglblids') 64bit
Writing library : libebml v1.3.4 + libmatroska v1.4.5

Video
ID : 1
Format : VC-1
Format profile : [email protected]
Codec ID : V_MS/VFW/FOURCC / WVC1
Codec ID/Hint : Microsoft
Duration : 1 h 40 min
Bit rate : 16.1 Mb/s
Width : 1 920 pixels
Height : 1 080 pixels
Display aspect ratio : 16:9
Frame rate mode : Constant
Frame rate : 23.976 (24000/1001) FPS
Color space : YUV
Chroma subsampling : 4:2:0
Bit depth : 8 bits
Scan type : Progressive
Compression mode : Lossy
Bits/(Pixel*Frame) : 0.325
Stream size : 11.3 GiB (84%)
Title : I Am Legend (2007)
Language : English
Default : Yes
Forced : No

Audio #1
ID : 2
Format : AC-3
Format/Info : Audio Coding 3
Mode extension : CM (complete main)
Format settings, Endianness : Big
Codec ID : A_AC3
Duration : 1 h 40 min
Bit rate mode : Constant
Bit rate : 448 kb/s
Channel(s) : 6 channels
Channel positions : Front: L C R, Side: L R, LFE
Sampling rate : 48.0 kHz
Frame rate : 31.250 FPS (1536 spf)
Bit depth : 16 bits
Compression mode : Lossy
Stream size : 322 MiB (2%)
Title : Ukrainian @ 448 Kbps | Дубляж, Blu-ray CEE
Language : Ukrainian
Default : Yes
Forced : Yes

Audio #2
ID : 3
Format :
Format/Info : Digital Theater Systems
Format profile : MA / Core
Mode : 16
Format settings, Endianness : Big
Codec ID : A_DTS
Duration : 1 h 40 min
Bit rate mode : Variable / Constant
Bit rate : 2 199 kb/s / 1 509 kb/s
Channel(s) : 6 channels
Channel positions : Front: L C R, Side: L R, LFE
Sampling rate : 48.0 kHz
Frame rate : 93.750 FPS (512 spf)
Bit depth : 16 bits
Compression mode : Lossless / Lossy
Stream size : 1.54 GiB (11%)
Title : -HD MA 5.1
Language : English
Default : No
Forced : No

Audio #3
ID : 4
Format : AC-3
Format/Info : Audio Coding 3
Mode extension : CM (complete main)
Format settings, Endianness : Big
Codec ID : A_AC3
Duration : 1 h 40 min
Bit rate mode : Constant
Bit rate : 448 kb/s
Channel(s) : 6 channels
Channel positions : Front: L C R, Side: L R, LFE
Sampling rate : 48.0 kHz
Frame rate : 31.250 FPS (1536 spf)
Bit depth : 16 bits
Compression mode : Lossy
Stream size : 322 MiB (2%)
Title : English @ 448 Kbps
Language : English
Default : No
Forced : No

Text #1
ID : 5
Format : UTF-8
Codec ID : S_TEXT/UTF8
Codec ID/Info : UTF-8 Plain Text
Duration : 1 h 39 min
Bit rate : 0 b/s
Count of elements : 12
Stream size : 564 Bytes (0%)
Title : Ukrainian Forced
Language : Ukrainian
Default : Yes
Forced : Yes

Text #2
ID : 6
Format : UTF-8
Codec ID : S_TEXT/UTF8
Codec ID/Info : UTF-8 Plain Text
Duration : 1 h 40 min
Bit rate : 46 b/s
Count of elements : 659
Stream size : 33.8 KiB (0%)
Title : Ukrainian Full
Language : Ukrainian
Default : No
Forced : No

Text #3
ID : 7
Format : UTF-8
Codec ID : S_TEXT/UTF8
Codec ID/Info : UTF-8 Plain Text
Duration : 1 h 31 min
Bit rate : 33 b/s
Count of elements : 657
Stream size : 22.3 KiB (0%)
Language : English
Default : No
Forced : No

Text #4
ID : 8
Format : UTF-8
Codec ID : S_TEXT/UTF8
Codec ID/Info : UTF-8 Plain Text
Duration : 1 h 31 min
Bit rate : 33 b/s
Count of elements : 657
Stream size : 22.3 KiB (0%)
Title : English Full
Language : English
Default : No
Forced : No
Скріншоти




Джерело:
Особиста оцінка: 10 - без зайвих вагань рекомендую всім!


Золотий реліз (завантажене не впливає на рейтинг)
 Трекер:    Зареєстрований   

Завантажити / скачати фільм українською



відео для новачків



 Зареєстрований:   2018-01-14 13:42
 Розмір:   13.51 GB 
 Оцінка фільму:   8.2/10 (Голосів: 17)
   
Інші релізи
bot 
робот


З нами з: 30.09.07
Востаннє: 26.05.05
Повідомлень: 18106

2018-01-13 11:48  
Тему перенесено з Фільми в HD до форуму Анонси релізів


staf777

megaKpbIcak 
Новенький


З нами з: 19.12.16
Востаннє: 19.01.18
Повідомлень: 6

2018-01-13 21:57  
Це фільм з оригінальним, дурним завершенням, чи перезнята версія?
teelmaster1 
Свій


З нами з: 27.12.16
Востаннє: 20.01.18
Повідомлень: 91

2018-01-14 12:50  
megaKpbIcak
а де ви таку Інфу прочитали що перезняли))))0

bot 
робот


З нами з: 30.09.07
Востаннє: 26.05.05
Повідомлень: 18106

2018-01-14 13:42  
Тему перенесено з Анонси релізів до форуму Фільми в HD


staf777

MAGnitos 
Новенький


З нами з: 30.10.16
Востаннє: 20.01.18
Повідомлень: 19

2018-01-14 14:43  
teelmaster1
Там була альтернативна кінцівка. То питання не втратило актуальності, в даній версії яка кінцівка?

igor911 
Відео Гуртом
Відео Гуртом


З нами з: 18.01.08
Востаннє: 21.01.18
Повідомлень: 8896

2018-01-14 14:58  
staf777 написано:
кодек:

staf777 написано:
кодек: -HD MA 5.1 бітрейт: 1509 кб/с

виправ згідно медіаінфо, набридло виправляти у кожному твоєму релізі.

Додано через 4 хвилини 4 секунди:

MAGnitos написано:
То питання не втратило актуальності, в даній версії яка кінцівка?

staf777 написано:
Театральна версія / Theatrical version

відмінності версій (обережно, спойлер!)

kolomyja 
Частий відвідувач


З нами з: 27.01.11
Востаннє: 20.01.18
Повідомлень: 49

2018-01-14 20:39  
теж цікавить чи це версія з альтернативним закінченням, бо хотілось б побачити саме її
igor911 
Відео Гуртом
Відео Гуртом


З нами з: 18.01.08
Востаннє: 21.01.18
Повідомлень: 8896

2018-01-14 20:41  
kolomyja, я вже вказав у попередньому коментарі, це театральна версія зі звичайною кінцівкоюю.
megaKpbIcak 
Новенький


З нами з: 19.12.16
Востаннє: 19.01.18
Повідомлень: 6

2018-01-19 20:35  
igor911
Погано Sad (1)

Додано через 1 хвилину 16 секунд:

teelmaster1
Я не інфу, я фільм бачив Happy
З нормальним кінцем...

mazoo_1992 
Новенький


З нами з: 04.10.15
Востаннє: 20.01.18
Повідомлень: 8

2018-01-20 14:17  
kolomyja
Якщо цікавить альтернативна кінцівка, шукайте режисерський аналог Happy

Ваш часовий пояс: GMT + 2 Години

Нова тема   Відповісти