Мумія / The Mummy (1999) 1080p 2хUkr/Eng | Sub Eng

Нові коментарі

Нова тема   Відповісти
Автор Повідомлення
Felodrein 
Частий відвідувач


З нами з: 18.12.17
Востаннє: 17.01.18
Повідомлень: 48

2018-01-13 01:38  
Мумія / The Mummy (1999) 1080p 2хUkr/Eng | Sub Eng




Жанр: пригодницький, фантастика, комедія, жахи
Країна: США



Кінокомпанія: Universal Pictures
Режисер: Стівен Соммерс (Stephen Sommers)
Актори: Брендан Фрайзер (Brendan Fraser), Рейчел Вайз (Rachel Weisz), Аднольд Вослоу (Arnold Vosloo), Джон Ханна (John Hannah), Одед Фер (Oded Fehr), Патрисія Веласкес (Patricia Velasquez) та інші

Сюжет:
На безкрайніх просторах єгипетської пустелі компанія відчайдухів різних національностей нишпорить у пошуках незчисленних скарбів фараона, над якими висить страшне стародавнє прокляття.
Поруч зі скарбом покоїться мумія підступного жерця, жорстоко страченого за жахливе вбивство могутнього правителя Єгипту. Золотошукачі потривожили багатовіковий спокій гробниці, і мумія встає з могили, щоб занурити світ у царство жаху...


Тривалість: 02:04:45
Якість:
Відео:
кодек:
розмір кадру: 1920 x 814
бітрейт: 6874 кб/с

Аудіо # 1:
мова: українська
переклад: багатоголосий закадровий
кодек: 5.1
бітрейт: 384 кб/с

Аудіо # 2:
мова: українська
переклад: професійний дубльований
кодек: 5.1
бітрейт: 384 кб/с

Аудіо # 3:
мова: англійська
переклад: оригінал
кодек: 5.1
бітрейт: 384 кб/с

Джерело озвучення:


Субтитри:
мова: українська (форсовані, на дубляж)
тип: програмні (м'які)
формат: *.srt

Субтитри:
мова: англійська (повні)
тип: пререндерні
формат: *.pgs
Info
General
Unique ID : 282775549292410299136125035892754484131 (0xD4BC96FCA07AD29E721BC1550FCE0BA3)
Complete name : F:\The Mummy (1999) [2xukr] 1080p[Hurtom]..
Format :
Format version : Version 4 / Version 2
File size : 7.00 GiB
Duration : 2 h 4 min
Overall bit rate : 8 038 kb/s
Encoded date : UTC 2018-01-12 22:54:29
Writing application : mkvmerge v19.0.0 ('Brave Captain') 64-bit
Writing library : libebml v1.3.5 + libmatroska v1.4.8

Video
ID : 1
Format : AVC
Format/Info : Advanced Video Codec
Format profile : [email protected]
Format settings : CABAC / 5 Ref Frames
Format settings, CABAC : Yes
Format settings, RefFrames : 5 frames
Codec ID : V_MPEG4/ISO/AVC
Duration : 2 h 4 min
Bit rate : 6 874 kb/s
Width : 1 920 pixels
Height : 814 pixels
Display aspect ratio : 2.35:1
Frame rate mode : Constant
Frame rate : 23.976 (24000/1001) FPS
Color space : YUV
Chroma subsampling : 4:2:0
Bit depth : 8 bits
Scan type : Progressive
Bits/(Pixel*Frame) : 0.183
Stream size : 5.99 GiB (86%)
Writing library : core 155 r2893M b00bcaf
Encoding settings : cabac=1 / ref=5 / deblock=1:-1:-1 / analyse=0x3:0x113 / me=umh / subme=10 / psy=1 / psy_rd=1.00:0.15 / mixed_ref=1 / me_range=64 / chroma_me=1 / trellis=2 / 8x8dct=1 / cqm=0 / deadzone=21,11 / fast_pskip=1 / chroma_qp_offset=-3 / threads=13 / lookahead_threads=3 / sliced_threads=0 / nr=0 / decimate=1 / interlaced=0 / bluray_compat=0 / constrained_intra=0 / bframes=16 / b_pyramid=2 / b_adapt=2 / b_bias=0 / direct=3 / weightb=1 / open_gop=0 / weightp=2 / keyint=240 / keyint_min=24 / scenecut=40 / intra_refresh=0 / rc_lookahead=60 / rc=crf / mbtree=1 / crf=17.8 / qcomp=0.60 / qpmin=0 / qpmax=69 / qpstep=4 / ip_ratio=1.40 / aq=1:1.00
Default : Yes
Forced : No

Audio #1
ID : 2
Format : AC-3
Format/Info : Audio Coding 3
Codec ID : A_AC3
Duration : 2 h 4 min
Bit rate mode : Constant
Bit rate : 384 kb/s
Channel(s) : 6 channels
Channel positions : Front: L C R, Side: L R, LFE
Sampling rate : 48.0 kHz
Frame rate : 31.250 FPS (1536 SPF)
Bit depth : 16 bits
Compression mode : Lossy
Delay relative to video : 5 ms
Stream size : 343 MiB (5%)
Language : Ukrainian
Service kind : Complete Main
Default : Yes
Forced : No

Audio #2
ID : 3
Format : AC-3
Format/Info : Audio Coding 3
Codec ID : A_AC3
Duration : 2 h 4 min
Bit rate mode : Constant
Bit rate : 384 kb/s
Channel(s) : 6 channels
Channel positions : Front: L C R, Side: L R, LFE
Sampling rate : 48.0 kHz
Frame rate : 31.250 FPS (1536 SPF)
Bit depth : 16 bits
Compression mode : Lossy
Delay relative to video : 5 ms
Stream size : 343 MiB (5%)
Language : Ukrainian
Service kind : Complete Main
Default : No
Forced : No

Audio #3
ID : 4
Format : AC-3
Format/Info : Audio Coding 3
Codec ID : A_AC3
Duration : 2 h 4 min
Bit rate mode : Constant
Bit rate : 384 kb/s
Channel(s) : 6 channels
Channel positions : Front: L C R, Side: L R, LFE
Sampling rate : 48.0 kHz
Frame rate : 31.250 FPS (1536 SPF)
Bit depth : 16 bits
Compression mode : Lossy
Stream size : 343 MiB (5%)
Language : English
Service kind : Complete Main
Default : No
Forced : No

Text #1
ID : 5
Format : PGS
Muxing mode : zlib
Codec ID : S_HDMV/PGS
Codec ID/Info : Picture based subtitle format used on BDs/HD-DVDs
Duration : 1 h 55 min
Bit rate : 33.0 kb/s
Count of elements : 10888
Stream size : 27.3 MiB (0%)
Language : English
Default : Yes
Forced : No

Text #2
ID : 6
Format : UTF-8
Codec ID : S_TEXT/UTF8
Codec ID/Info : UTF-8 Plain Text
Duration : 1 h 48 min
Bit rate : 1 b/s
Count of elements : 43
Stream size : 1.47 KiB (0%)
Language : Ukrainian
Default : No
Forced : No
Скріншоти
Джерело:
Особиста оцінка: 10 - без зайвих вагань рекомендую всім!


Срібний реліз (на рейтинг впливає 50% завантаженого)
 Трекер:    Зареєстрований   

Завантажити / скачати фільм українською



відео для новачків



 Зареєстрований:   2018-01-13 01:38
 Розмір:   7 GB 
 Оцінка фільму:   10/10 (Голосів: 9)
   
Інші релізи
   Мумія / The Mummy (1999) [MP4, 640x] apvAltisimo  0 / 0   743 MB   2016-03-27 20:00 
igor911 
Відео Гуртом
Відео Гуртом


З нами з: 18.01.08
Востаннє: 18.01.18
Повідомлень: 8864

2018-01-13 23:58  
Felodrein, додай, будь ласка, англійську доріжку в опис та зміни тип англ.сабів з "програмні (м'які)" на "пререндерні".
Felodrein 
Частий відвідувач


З нами з: 18.12.17
Востаннє: 17.01.18
Повідомлень: 48

2018-01-15 18:08  
igor911
Готово

Ваш часовий пояс: GMT + 2 Години

Нова тема   Відповісти