Казино / Casino (1995) 1080p Ukr/Eng | Sub Ukr/Eng

Нові коментарі

Нова тема   Відповісти
Автор Повідомлення
Felodrein 
Частий відвідувач


З нами з: 18.12.17
Востаннє: 19.01.18
Повідомлень: 48

2018-01-11 11:33  
Казино / Casino (1995) 1080p Ukr/Eng | Sub Ukr/Eng



Казино / Casino (1995) 1080p Ukr/Eng | Sub Ukr/Eng


Жанр: біографічний, кримінальний, драма
Країна: США, Франція

Top 250 #147

Кінокомпанія: Universal Pictures, Syalis DA, Légende Entreprises
Режисер: Мартін Скорсезе / Martin Scorsese
Актори: Роберт Де Ніро / Robert De Niro, Шерон Стоун / Sharon Stone, Джо Пеші / Joe Pesci, James Woods / Джеймс Вудс, Дон Ріклз / Don Rickles, Алан Кінґ / Alan King, Кевін Поллак / Kevin Pollak, Л. К. Джонс / L.Q. Jones, Дік Смотерз / Dick Smothers, Френк Вінсент / Frank Vincent

Сюжет:
Ніхто не може порівнятися з Семом Ротстіном. Ніхто не вміє заробляти гроші, як він. Ніхто не вміє працювати так самовіддано і акуратно, як трудяга Сем. За свої незаперечні переваги Ротстін одержав кличку "Туз". І саме тому боси мафії вирішили відправити Туза заправляти величезним шикарним казино в Лас-Вегасі. А щоб Сему ніхто не заважав "працювати", мафіозі відправили вслід за Тузом друга дитинства Ротстіна - Ніккі Санторо, пропащого бандита і безжального головоріза. В Лас-Вегасі Туз як завжди з блиском виконував свою роботу. Казино процвітало, водоcпад грошей безупинно лився в кишені задоволених гангстерів-покровителів. Міські ватажки знаходилися "на постачанні" у мафії, поліцейські і суди були куплені, і, здавалося, ніщо не може затьмарити життя Туза. Але Господь розпорядився інакше. Непохитній імперії Сема Ротстіна судилося потонути в трагедії і крові.


Тривалість: 02:58:20
Якість:
Відео:
кодек:
розмір кадру: 1920 x 816
бітрейт: 12600 кб/с

Аудіо # 1:
мова: українська
переклад: багатоголосий закадровий
кодек: 2.0
бітрейт: 192 кб/с

Аудіо # 2:
мова: англійська
переклад: оригінал
кодек: 5.1
бітрейт: 384 кб/с

Джерело озвучення:


Субтитри:
мова: українська
тип: програмні (м'які)
формат: *.srt

Субтитри:
мова: англійська
тип: програмні (м'які)
формат: *.srt
Info та log
Код:
General
Unique ID                                : 186852258974763029240888298020688435626 (0x8C926FA284CD72063DC8DB251AB119AA)
Complete name                            : E:\Inet__\Casino 1995 [Voland_].BluRay\BDMV\PLAYLIST\Casino (1995) [Ukr & Eng] ,1080p, [Hurtom].
Format                                   :
Format version                           : Version 4 / Version 2
File size                                : 16.4 GiB
Duration                                 : 2 h 58 min
Overall bit rate                         : 13.2 Mb/s
Encoded date                             : UTC 2018-01-11 08:18:38
Writing application                      : v19.0.0 ('Brave Captain') 64-bit
Writing library                          : libebml v1.3.5 + v1.4.8

Video
ID                                       : 1
Format                                   : AVC
Format/Info                              : Advanced Video Codec
Format profile                           : [email protected]
Format settings                          : CABAC / 5 Ref Frames
Format settings, CABAC                   : Yes
Format settings, RefFrames               : 5 frames
Codec ID                                 : V_MPEG4/ISO/AVC
Duration                                 : 2 h 58 min
Bit rate                                 : 12.6 Mb/s
Width                                    : 1 920 pixels
Height                                   : 816 pixels
Display aspect ratio                     : 2.35:1
Frame rate mode                          : Constant
Frame rate                               : 23.976 (24000/1001) FPS
Color space                              : YUV
Chroma subsampling                       : 4:2:0
Bit depth                                : 8 bits
Scan type                                : Progressive
Bits/(Pixel*Frame)                       : 0.336
Stream size                              : 15.7 GiB (96%)
Writing library                          : core 152 r2851 ba24899
Encoding settings                        : cabac=1 / ref=5 / deblock=1:-1:-1 / analyse=0x3:0x133 / me=umh / subme=10 / psy=1 / psy_rd=1.00:0.15 / mixed_ref=1 / me_range=32 / chroma_me=1 / trellis=2 / 8x8dct=1 / cqm=0 / deadzone=21,11 / fast_pskip=0 / chroma_qp_offset=-3 / threads=3 / lookahead_threads=1 / sliced_threads=0 / nr=0 / decimate=1 / interlaced=0 / bluray_compat=0 / constrained_intra=0 / bframes=8 / b_pyramid=2 / b_adapt=2 / b_bias=0 / direct=3 / weightb=1 / open_gop=1 / weightp=2 / keyint=240 / keyint_min=23 / scenecut=40 / intra_refresh=0 / rc_lookahead=60 / rc=crf / mbtree=1 / crf=18.0 / qcomp=0.60 / qpmin=0 / qpmax=69 / qpstep=4 / ip_ratio=1.40 / aq=1:1.00
Default                                  : Yes
Forced                                   : No

Audio #1
ID                                       : 2
Format                                   : AC-3
Format/Info                              : Audio Coding 3
Codec ID                                 : A_AC3
Duration                                 : 2 h 58 min
Bit rate mode                            : Constant
Bit rate                                 : 192 kb/s
Channel(s)                               : 2 channels
Channel positions                        : Front: L R
Sampling rate                            : 48.0 kHz
Frame rate                               : 31.250 FPS (1536 SPF)
Bit depth                                : 16 bits
Compression mode                         : Lossy
Stream size                              : 245 MiB (1%)
Language                                 : Ukrainian
Service kind                             : Complete Main
Default                                  : Yes
Forced                                   : No

Audio #2
ID                                       : 3
Format                                   : AC-3
Format/Info                              : Audio Coding 3
Codec ID                                 : A_AC3
Duration                                 : 2 h 58 min
Bit rate mode                            : Constant
Bit rate                                 : 384 kb/s
Channel(s)                               : 6 channels
Channel positions                        : Front: L C R, Side: L R, LFE
Sampling rate                            : 48.0 kHz
Frame rate                               : 31.250 FPS (1536 SPF)
Bit depth                                : 16 bits
Compression mode                         : Lossy
Stream size                              : 490 MiB (3%)
Language                                 : English
Service kind                             : Complete Main
Default                                  : No
Forced                                   : No

Text #1
ID                                       : 4
Format                                   : UTF-8
Codec ID                                 : S_TEXT/UTF8
Codec ID/Info                            : UTF-8 Plain Text
Duration                                 : 2 h 51 min
Bit rate                                 : 146 b/s
Count of elements                        : 2781
Stream size                              : 184 KiB (0%)
Language                                 : Ukrainian
Default                                  : Yes
Forced                                   : No

Text #2
ID                                       : 5
Format                                   : UTF-8
Codec ID                                 : S_TEXT/UTF8
Codec ID/Info                            : UTF-8 Plain Text
Duration                                 : 2 h 55 min
Bit rate                                 : 104 b/s
Count of elements                        : 3643
Stream size                              : 134 KiB (0%)
Language                                 : English
Default                                  : No
Forced                                   : No


Код:
---[Information] [11.01.2018 1:34:41] [info]: frame I:1821 Avg QP:15.99 size:204138
---[Information] [11.01.2018 1:34:41] [info]: frame P:49174 Avg QP:19.17 size: 95916
---[Information] [11.01.2018 1:34:41] [info]: frame B:205552 Avg QP:20.92 size: 57340
Скріншоти
Джерело:

Висловлюю подяку п. karvai0 за синхронізацію, п. Sando7, xslim, OlegCena, MAKAPOHHIK за сирий звук і п. Lan за українські субтитри.


Особиста оцінка: 10 - без зайвих вагань рекомендую всім!


Срібний реліз (на рейтинг впливає 50% завантаженого)
 Трекер:    Зареєстрований   

Завантажити / скачати фільм українською



відео для новачків



 Зареєстрований:   2018-01-11 11:33
 Розмір:   16.44 GB 
 Оцінка фільму:   9.5/10 (Голосів: 15)
   
Інші релізи
   Казино / Casino (1995) AVC Ukr/Eng | Sub Ukr/Eng staf777  5 / 1   4.06 GB   2019-06-23 18:54 
   Казино / Casino (1995) Remux 1080p Ukr/Eng | Sub Ukr/Eng kryk-v.ya.  4 / 0   31.69 GB   2019-05-25 19:29 
   Казино / Casino (1995) 720p Ukr/Eng | Sub Ukr/Eng igor911  3 / 0   9.15 GB   2014-06-30 11:09 
   Казино / Casino (1995) Ukr/Eng | Sub Ukr/Eng karvai0  8 / 0   2.9 GB   2014-06-30 00:53 
Felodrein 
Частий відвідувач


З нами з: 18.12.17
Востаннє: 19.01.18
Повідомлень: 48

2018-01-11 12:36  
Лог

---[Information] [11.01.2018 1:34:41] [info]: frame I:1821 Avg QP:15.99 size:204138
---[Information] [11.01.2018 1:34:41] [info]: frame P:49174 Avg QP:19.17 size: 95916
---[Information] [11.01.2018 1:34:41] [info]: frame B:205552 Avg QP:20.92 size: 57340
Додано через 55 хвилин 28 секунд:

Крутий фільмак Wink (2)

igor911 
Модератор відео


З нами з: 18.01.08
Востаннє: 21.08.19
Повідомлень: 13139

2018-01-11 12:51  
Felodrein, за наявності повних українських субтитрів небажано каструвати оригінальний звук до 384 кб/с - є користувачі, що дивитимуться на нормальній акустиці з укр.сабами, в такому разі для ріпу 1080р бажано було б залишати оригінал в ДТС 1509 кб/с.
Felodrein 
Частий відвідувач


З нами з: 18.12.17
Востаннє: 19.01.18
Повідомлень: 48

2018-01-11 12:55  
igor911
Ок.

TomVovkylaka 
Свій


З нами з: 03.01.10
Востаннє: 14.08.19
Повідомлень: 101

2018-08-29 16:24  
видалене повідомлення
igor911 
Модератор відео


З нами з: 18.01.08
Востаннє: 21.08.19
Повідомлень: 13139

2018-08-29 17:31  
TomVovkylaka, в нас спілкуються українською:
Цитата:
2. Правила та обмеження форуму
Всім без винятку заборонено:
2.1 Спілкуватися іншою мовою, аніж літературною українською


п.с. чесно кажучи, відкривши твій профіль був прикро вражений - 8,5 років на Толоці, робив реліз, близько сотні повідомлень українською, зі Львова...і тут коментар російською...на 4му році війни, в день жалоби за сотнями розстріляних в Іловайському котлі... якщо не секрет - що спонукало тебе до русифікації?

Додано через 1 хвилину 1 секунду:

от халепа, казінозеркало...це тупо спам

TomVovkylaka 
Свій


З нами з: 03.01.10
Востаннє: 14.08.19
Повідомлень: 101

2018-08-30 10:07  
igor911
Вибачте, це був не я, а якийсь спам-бот чи що... в мене майже всі акаунти, де б я не був зареєстрований почали спамити...

igor911 
Модератор відео


З нами з: 18.01.08
Востаннє: 21.08.19
Повідомлень: 13139

2018-08-30 10:14  
TomVovkylaka написано:
в мене майже всі акаунти, де б я не був зареєстрований почали спамити

раджу перевірити та почистити свій комп та змінити пароль.

Ваш часовий пояс: GMT + 2 Години

Нова тема   Відповісти