Мантяр (Самозванець) (Сезон 2) / Impastor (Season 2) (2016) 1080p Eng | sub Ukr

Нові коментарі

Нова тема   Відповісти
Автор Повідомлення
pskrm 
Свій


З нами з: 03.03.17
Востаннє: 15.07.20
Повідомлень: 114

2018-01-10 20:00  
Мантяр (Самозванець) (Сезон 2) / Impastor (Season 2) (2016) 1080p Eng | sub Ukr

Мантяр (Самозванець) (Сезон 2) / Impastor (Season 2) (2016) 1080p Eng | sub Ukr


Жанр: кримінальний, комедія
Країна: США



Кінокомпанія: TV Land Original Productions CBS Television Studios
Режисер: Роб Грінберг
Актори: Майкл Розенбаум, Сара Рю, Мірчі Монро

Сюжет:
Для типового невдахи Бадді Доббса наркотики, випивка і азартні ігри стали основними захопленням. Любляча дівчина, яка вірить у можливість його виправлення лише все сильніше розчаровується в обранцеві. Серія невдач зводить хлопця з викидайлами, яким Бадді заборгував серйозні гроші. Намагаючись врятувати власну шкуру Доббс вирішує виїхати в Вегас зі своєю дівчиною, але та очікувано кидає безнадійного кавалера. Втративши все ігроман збирається звести рахунки з життям, але й тут все виявляється не так-то просто. У результаті безглуздого збігу обставин Бадді отримує шанс почати життя з чистого аркуша заволодівши особистістю законослухняного пастора з новою машиною, роботою, будинком і банківським рахунком. Самозванець прибуває в невелике містечко зі стабільним приходом, де всі приймають Доббса за справжнього священика. Ось тільки як довго атеїст і наркоман протримається в ролі пастора, а тим більше гомосексуальної орієнтації? Бадді чудово розуміє своє становище і прагне якомога швидше очистити всі рахунки і бігти якнайдалі, поки оточуючі не розкусили його обман.


Перший сезон можна знайти тут

Тривалість: 00:20:00
Перелік серій

01. The Devil Went Down to Ladner / Диявол спустився до Ладнеру
02. Guardian Angel / Янгол-охоронець
03. Buddy's Prayer / Молитва Бадді
04. Sins of the Past-or Part 1 / Гріхи минулого. Частина перша
05. Ex-Communication / Про колишніх
06. The Bish is Back / Єпископ повернувся
07. Ah-Men / Амінь
08. My Little Brother's Little Brother's Keeper / Молодший брат мого молодшого брата
09. Judge Not / Не суди
10. Thy Neighbor's Wife / Дружина сусіда
Якість:
Відео:
кодек:
розмір кадру: 1920 х 1080
бітрейт: 4569 кб/c

Аудіо:
мова: англійська
переклад: оригінал
кодек: 2.0
бітрейт: 165 кб/с

Субтитри:
мова: українська
тип: програмні (м'які)
формат: *.srt

Субтитри :власний переклад
Info

General
Complete name : ImpastorS02E01.mp4
Format : MPEG-4
Format profile : Base Media
Codec ID : isom (isom/iso2/avc1/mp41)
File size : 751 MiB
Duration : 22 min 9 s
Overall bit rate mode : Variable
Overall bit rate : 4 738 kb/s
Movie name : Impastor.S02E01.1080p.AMZN..DDP2.0.-TrollHD
Writing application : Lavf56.40.101

Video
ID : 1
Format : AVC
Format/Info : Advanced Video Codec
Format profile : [email protected]
Format settings, CABAC : Yes
Format settings, RefFrames : 4 frames
Codec ID : avc1
Codec ID/Info : Advanced Video Coding
Duration : 22 min 9 s
Bit rate : 4 569 kb/s
Width : 1 920 pixels
Height : 1 080 pixels
Display aspect ratio : 16:9
Frame rate mode : Variable
Frame rate : 23.976 FPS
Minimum frame rate : 23.810 FPS
Maximum frame rate : 24.390 FPS
Color space : YUV
Chroma subsampling : 4:2:0
Bit depth : 8 bits
Scan type : Progressive
Bits/(Pixel*Frame) : 0.092
Stream size : 724 MiB (96%)
Writing library : core 148 r2643 5c65704
Encoding settings : cabac=1 / ref=1 / deblock=1:0:0 / analyse=0x1:0x111 / me=hex / subme=2 / psy=1 / psy_rd=1.00:0.00 / mixed_ref=0 / me_range=16 / chroma_me=1 / trellis=0 / 8x8dct=0 / cqm=0 / deadzone=21,11 / fast_pskip=1 / chroma_qp_offset=0 / threads=3 / lookahead_threads=1 / sliced_threads=0 / nr=0 / decimate=1 / interlaced=0 / bluray_compat=0 / constrained_intra=0 / bframes=3 / b_pyramid=2 / b_adapt=1 / b_bias=0 / direct=1 / weightb=1 / open_gop=0 / weightp=1 / keyint=240 / keyint_min=24 / scenecut=40 / intra_refresh=0 / rc_lookahead=10 / rc=crf / mbtree=1 / crf=20.0 / qcomp=0.60 / qpmin=0 / qpmax=69 / qpstep=4 / vbv_maxrate=20000 / vbv_bufsize=25000 / crf_max=0.0 / nal_hrd=none / filler=0 / ip_ratio=1.40 / aq=1:1.00
Color range : Limited
Color primaries : BT.709
Transfer characteristics : BT.709
Matrix coefficients : BT.709

Audio
ID : 2
Format :
Format/Info : Advanced Audio Codec
Format profile : LC
Codec ID : 40
Duration : 22 min 9 s
Duration_LastFrame : 21 ms
Bit rate mode : Constant
Bit rate : 162 kb/s
Channel(s) : 2 channels
Channel positions : Front: L R
Sampling rate : 48.0 kHz
Frame rate : 46.875 FPS (1024 SPF)
Compression mode : Lossy
Stream size : 25.7 MiB (3%)
Language : English
Default : Yes
Alternate group : 1

Text
ID : 3
Format : Timed Text
Muxing mode : sbtl
Codec ID : tx3g
Duration : 22 min 9 s
Bit rate mode : Variable
Bit rate : 143 b/s
Stream size : 23.2 KiB (0%)
Language : Ukrainian
Default : Yes
Forced : No
Alternate group : 3
Скріншоти


Джерело:
Особиста оцінка: 8 - мені сподобалося


Золотий реліз (завантажене не впливає на рейтинг)
 Трекер:    Зареєстрований   

Завантажити / скачати серіал українською



відео для новачків



 Зареєстрований:   2018-03-20 22:16
 Розмір:   6.61 GB 
 Оцінка серіалу:   8.9/10 (Голосів: 9)
   
gashyk 
Свій


З нами з: 19.03.10
Востаннє: 05.12.20
Повідомлень: 124

2018-01-11 18:52  
Легкий, смішний і тупий серіал. Дивитись треба)
pskrm 
Свій


З нами з: 03.03.17
Востаннє: 15.07.20
Повідомлень: 114

2018-01-21 11:16  
Реліз оновлено!

Додано 3-тю серію!

pskrm 
Свій


З нами з: 03.03.17
Востаннє: 15.07.20
Повідомлень: 114

2018-02-02 08:17  
Реліз оновлено!

Додано 4-ту серію!

pskrm 
Свій


З нами з: 03.03.17
Востаннє: 15.07.20
Повідомлень: 114

2018-02-25 21:47  
Реліз оновлено!

Додано 5-ту серію!

pskrm 
Свій


З нами з: 03.03.17
Востаннє: 15.07.20
Повідомлень: 114

2018-03-12 08:57  
Реліз оновлено!

Додано 6-8 серії!

pskrm 
Свій


З нами з: 03.03.17
Востаннє: 15.07.20
Повідомлень: 114

2018-03-20 22:18  
Реліз оновлено!

Додано 9-10 серії!

Другий сезон повністю.

Дякуємо, що дивитеся нас.

Ваш часовий пояс: GMT + 2 Години

Нова тема   Відповісти