Ґолдберги (Сезон 3, серії 1-9 з 24) / The Goldbergs (Season 3, episodes 1-9 of 24) (2015) AVC

Нові коментарі

Нова тема   Відповісти
Останній раз роздавалося leicheman (2018-01-19)
Автор Повідомлення
Anonymous 







2018-01-10 13:36  
Ґолдберги (Сезон 3, серії 1-9 з 24) / The Goldbergs (Season 3, episodes 1-9 of 24) (2015) AVC



Жанр: комедія, сімейний
Країна: США


Кінокомпанія / телеканал: Adam F. Goldberg Productions, Happy Madison Productions, Sony Pictures Television
Режисер: Адам Ф. Ґолдберг
Актори/ролі озвучують: Венді Маклендон-Кові, Сіан Амброн, Трой Джентіле, Гейлі Орранція, Джордж Сігал, Джефф Гарлін

Сюжет:
Події серіалу відбуваються в «1980-якомусь році» в містечку Дженкінтаун. У центрі сюжету сім'я Ґолдбергів. Головний герой серіалу хлопчик на ім'я Адам, який полюбляє роботів, фільми та майже завжди ходить зі своєю відеокамерою і фіксує різні події свого життя та сім'ї.
Серіал частково засновано на дитинстві та юності продюсера та сценариста Адама Ф. Ґолдберга, який теж знімав в дитинстві усе камерою і реальні зйомки потрапили у кожну серію серіалу.


Тривалість: 1 серія: 20хв (цілком серій: 9 з 24)
Перелік серій
1. A Kick-Ass Risky Business Party
2. A Chorus Lie
3. Jimmy 5 Is Alive
4. I Caddyshacked the Pool
5. Boy Barry
6. Couples Costume
7. Lucky
8. In Conclusion, Thanksgiving
9. Wingmom
Якість: AVC
Відео:
кодек:
розмір кадру: 1024x570
бітрейт: 1924 кб/с
crf: 19

Аудіо:
мова: українська
переклад: багатоголосий закадровий
кодек: 2.0
бітрейт: 192 кб/с

Джерело озвучення:
Скріншоти



МедіаІнфо
Complete name : E:\The Goldbergs (Season 3)\s03e01.
Format :
Format version : Version 4 / Version 2
File size : 313 MiB
Duration : 20 min 38 s
Overall bit rate : 2 118 kb/s
Encoded date : UTC 2018-01-10 10:56:03
Writing application : mkvmerge v8.8.0 ('Wind at my back') 64bit
Writing library : libebml v1.3.3 + libmatroska v1.4.4

Video
ID : 1
Format : AVC
Format/Info : Advanced Video Codec
Format profile : [email protected]
Format settings : CABAC / 5 Ref Frames
Format settings, CABAC : Yes
Format settings, ReFrames : 5 frames
Codec ID : V_MPEG4/ISO/AVC
Duration : 20 min 38 s
Bit rate : 1 924 kb/s
Width : 1 024 pixels
Height : 570 pixels
Display aspect ratio : 16:9
Frame rate mode : Constant
Frame rate : 25.000 FPS
Color space : YUV
Chroma subsampling : 4:2:0
Bit depth : 8 bits
Scan type : Progressive
Bits/(Pixel*Frame) : 0.132
Stream size : 284 MiB (91%)
Writing library : core 146 r2538 121396c
Encoding settings : cabac=1 / ref=5 / deblock=1:-1:-1 / analyse=0x3:0x113 / me=umh / subme=8 / psy=1 / psy_rd=1.00:0.15 / mixed_ref=1 / me_range=16 / chroma_me=1 / trellis=1 / 8x8dct=1 / cqm=0 / deadzone=21,11 / fast_pskip=1 / chroma_qp_offset=-3 / threads=3 / lookahead_threads=1 / sliced_threads=0 / nr=0 / decimate=1 / interlaced=0 / bluray_compat=0 / constrained_intra=0 / bframes=3 / b_pyramid=2 / b_adapt=2 / b_bias=0 / direct=3 / weightb=1 / open_gop=0 / weightp=2 / keyint=250 / keyint_min=25 / scenecut=40 / intra_refresh=0 / rc_lookahead=50 / rc=crf / mbtree=1 / crf=19.0 / qcomp=0.60 / qpmin=0 / qpmax=69 / qpstep=4 / ip_ratio=1.40 / aq=1:1.00
Language : English
Default : Yes
Forced : No

Audio
ID : 2
Format : AC-3
Format/Info : Audio Coding 3
Codec ID : A_AC3
Duration : 20 min 38 s
Bit rate mode : Constant
Bit rate : 192 kb/s
Channel(s) : 2 channels
Channel positions : Front: L R
Sampling rate : 44.1 kHz
Frame rate : 28.711 FPS (1536 SPF)
Bit depth : 16 bits
Compression mode : Lossy
Delay relative to video : 80 ms
Stream size : 28.3 MiB (9%)
Title : Студія 1+1 для Paramoun Comedy Ukraine
Language : Ukrainian
Service kind : Complete Main
Default : Yes
Forced : No
Джерело:
Особиста оцінка: 8 - мені сподобалося
Дата останнього оновлення 19.01.18 - додано 9ту серію.
Хто вантажив торент раніше, просто завантажте тільки цю серію


Бронзовий реліз (на рейтинг впливає 75% завантаженого)
 Трекер:    Зареєстрований   

Завантажити / скачати серіал українською



відео для новачків



 Зареєстрований:   2018-01-19 13:56
 Розмір:   2.72 GB 
 Оцінка серіалу:   10/10 (Голосів: 3)
   
Electroz 
Відео Гуртом - підтримка та поширення
Відео Гуртом - підтримка та поширення


З нами з: 18.09.14
Востаннє: 20.01.18
Повідомлень: 2165

2018-01-10 13:51  
Під не плануєте робити?
Anonymous 







2018-01-10 13:53  
Electroz написано:
Під не плануєте робити?

ні, якщо хочете то робіть.
це буде значно краще таких моїх ріпів Happy

roomario 
Новенький


З нами з: 18.05.15
Востаннє: 18.01.18
Повідомлень: 2

2018-01-10 15:00  
МОЖЕ ДАВАЙТЕ ПОЧНЕМО З ОСТАНЬОГО СЕЗОНУ ДИВИТИСЯ? А ТО ЯКОСЬ З СЕРЕДИНИ ПОЧАЛИ )
Anonymous 







2018-01-10 15:20  
roomario написано:
МОЖЕ ДАВАЙТЕ ПОЧНЕМО З ОСТАНЬОГО СЕЗОНУ ДИВИТИСЯ? А ТО ЯКОСЬ З СЕРЕДИНИ ПОЧАЛИ

Зараз показують тільки 3й сезон.
Коли почнуть заново показувати 1-2й то буде реліз.

ivankiv11 
Новенький


З нами з: 28.01.13
Востаннє: 20.01.18
Повідомлень: 7

2018-01-13 22:44  
Так я не зрозумів, то буде викладено 1-й та 2-й сезон the Goldbergs? Дякую!
Anonymous 







2018-01-14 08:17  
ivankiv11 написано:
Так я не зрозумів, то буде викладено 1-й та 2-й сезон the Goldbergs? Дякую!

Буду, але тільки коли його будуть показувати. Зараз йде тільки 3й сезон по одній серії у будні дні.

ivankiv11 
Новенький


З нами з: 28.01.13
Востаннє: 20.01.18
Повідомлень: 7

2018-01-14 16:55  
Дякую за змістовну відповідь!
Estranded 
VIP


З нами з: 09.02.14
Востаннє: 21.01.18
Повідомлень: 1051

2018-01-19 14:30  
А інші серіали від парамаунт будуть?
Anonymous 







2018-01-19 15:49  
Estranded
гадаю, що пан Sando7 пише з нього, а там вже хтось та і буде релізи робити.

Ваш часовий пояс: GMT + 2 Години

Нова тема   Відповісти