Воркрафт (Варкрафт): Початок / Warcraft (2016) 720p H.265 Ukr/Eng

Нові коментарі

Нова тема   Відповісти
Автор Повідомлення
-ПАН КОЦЬКИЙ- 
Свій


З нами з: 27.11.17
Востаннє: 07.11.19
Повідомлень: 77

2018-01-10 13:10  
Воркрафт (Варкрафт): Початок / Warcraft (2016) 720p H.265 Ukr/Eng



Жанр: пригоди, фентезі, дія
Країна: США, Канада, Японія, Китай



Кінокомпанія: Universal Pictures, Atlas Entertainment, Legendary Pictures, Blizzard Entertainment
Режисер: Дункан Джонс
Актори: Тревіс Фіммел, Бен Фостер, Тобі Кеббелл, Домінік Купер, Раян Роббінс, Роберт Казінськи, Паула Паттон, Кленсі Браун, Каллен Мулвей, Рут Неґґа

Сюжет:
Фантастичний фільм від режисера "Місяць 2112" і "Початкового Коду" Дункана Джонса. Епічна стрічка про протистояння людей і орків, заснована на серії популярних відеоігор та романів. Королівство Азерота знаходиться на порозі війни. Мирні жителі зі своїм ватажком Андуіном Лотаром стикаються із расою жорстоких загарбників - орків. Ті, в свою чергу, шукають нову землю, бо їхня батьківщина Дренор більше не придатна для життя. Два світи з'єднає Темний портал, за допомогою якого військо ватажка орків Дуротана увірветься на землі людей. Яка раса візьме гору в цій смертельній сутичці?


Тривалість: 02:03:07
Якість:
Відео: H.265 (HEVC)
розмір кадру: 1280x528
бітрейт: 3246 кб/с
бітова глибина: 10 біт
примітка: не буде відтворюватись на "залізних" програвачах без підтримки H.265 (HEVC)!

Аудіо # 1:
мова: українська
переклад: професійний дубльований
кодек: 2.0
бітрейт: 192 кб/с

Аудіо # 2
:
мова: англійська
переклад: оригінал
кодек: 5.1
бітрейт: 448 кб/с
Info
General
Unique ID : 182059416999551434302960556261894761797 (0x88F75E47F8F00E232769E4B07B3BAD45)
Complete name : F:\WARCRAFT.
Format :
Format version : Version 4 / Version 2
File size : 3.35 GiB
Duration : 2 h 3 min
Overall bit rate : 3 890 kb/s
Movie name : WARCRAFT
Encoded date : UTC 2018-01-10 12:28:23
Writing application : v19.0.0 ('Brave Captain') 64-bit
Writing library : libebml v1.3.5 + v1.4.8
Cover : Yes
Attachments : cover.warcraft.jpg

Video
ID : 1
Format : HEVC
Format/Info : High Efficiency Video Coding
Codec ID : V_MPEGH/ISO/HEVC
Duration : 2 h 3 min
Bit rate : 3 246 kb/s
Width : 1 280 pixels
Height : 528 pixels
Display aspect ratio : 2.40:1
Frame rate mode : Constant
Frame rate : 23.976 (24000/1001) FPS
Color space : YUV
Chroma subsampling : 4:2:0
Bit depth : 10 bits
Bits/(Pixel*Frame) : 0.200
Stream size : 2.79 GiB (83%)
Writing library : x265 1.5+88-0e89af0781ee:[Windows][GCC 4.8.2][64 bit] 16bpp
Encoding settings : wpp / ctu=64 / min-cu-size=8 / max-tu-size=32 / tu-intra-depth=1 / tu-inter-depth=1 / me=2 / subme=6 / merange=96 / no-rect / no-amp / max-merge=2 / temporal-mvp / no-early-skip / rdpenalty=0 / no-tskip / no-tskip-fast / strong-intra-smoothing / no-lossless / no-cu-lossless / no-constrained-intra / no-fast-intra / open-gop / no-temporal-layers / interlace=0 / keyint=240 / min-keyint=23 / scenecut=40 / rc-lookahead=20 / bframes=8 / bframe-bias=0 / b-adapt=2 / ref=7 / weightp / no-weightb / aq-mode=1 / aq-strength=0.30 / cbqpoffs=0 / crqpoffs=0 / rd=3 / psy-rd=0.50 / psy-rdoq=0.00 / signhide / lft / sao / no-sao-non-deblock / b-pyramid / cutree / rc=crf / crf=19.5 / qcomp=0.80 / qpmin=0 / qpmax=51 / qpstep=4 / vbv-maxrate=12000 / vbv-bufsize=12000 / crf-max=0.0 / ipratio=1.10 / pbratio=1.10
Language : English
Default : Yes
Forced : Yes

Audio #1
ID : 2
Format : AC-3
Format/Info : Audio Coding 3
Codec ID : A_AC3
Duration : 2 h 3 min
Bit rate mode : Constant
Bit rate : 192 kb/s
Channel(s) : 2 channels
Channel positions : Front: L R
Sampling rate : 48.0 kHz
Frame rate : 31.250 FPS (1536 SPF)
Bit depth : 16 bits
Compression mode : Lossy
Stream size : 169 MiB (5%)
Language : Ukrainian
Service kind : Complete Main
Default : Yes
Forced : Yes

Audio #2
ID : 3
Format : AC-3
Format/Info : Audio Coding 3
Codec ID : A_AC3
Duration : 2 h 3 min
Bit rate mode : Constant
Bit rate : 448 kb/s
Channel(s) : 6 channels
Channel positions : Front: L C R, Side: L R, LFE
Sampling rate : 48.0 kHz
Frame rate : 31.250 FPS (1536 SPF)
Bit depth : 16 bits
Compression mode : Lossy
Stream size : 395 MiB (12%)
Language : English
Service kind : Complete Main
Default : No
Forced : No
Скріншоти


УВАГА H.265 (HEVC)!
High Efficiency Video Coding HEVC (H.265) - представляє нове покоління енкодерів яке створювалося в тому числі для 4К ТБ.
На сучасних "залізних" плеєрах не відтворюється (і не буде)
Аналогічно на телевізорах з вбудованим програвачем медіа
На смартТВ можливо, залежить від моделі ( на універсальних арм процессорах так) необхідне відповідне ПЗ
На PC та HTPC - так, необхідно оновити кодеки та программи відтворення(преєри) - практично усі сучасні плеєри h265 вже підтримують.
Планшети, смартфони - так (відповідне ПЗ)
Джерело:
Особиста оцінка: 10 - без зайвих вагань рекомендую всім!


 Трекер:    Зареєстрований   

Завантажити / скачати фільм українською



відео для новачків



 Зареєстрований:   2018-01-10 14:56
 Розмір:   3.35 GB 
 Оцінка фільму:   9.7/10 (Голосів: 30)
   
Інші релізи
-ПАН КОЦЬКИЙ- 
Свій


З нами з: 27.11.17
Востаннє: 07.11.19
Повідомлень: 77

2018-01-10 13:35  
МІЙ ПЕРШИЙ РЕЛІЗ
Chelsea2177 
Новенький


З нами з: 26.06.17
Востаннє: 12.07.19
Повідомлень: 1

2018-01-10 21:28  
-ПАН КОЦЬКИЙ-
Дякую! А можеш зробити розширену версію українською? Там ще десь 13 хв додаткових сцен, якщо не помиляюсь.

igor911 
Модератор відео


З нами з: 18.01.08
Востаннє: 18.11.19
Повідомлень: 13663

2018-01-10 22:44  
Chelsea2177, звернись до Demrandir'а - він спец по розширених версіях.
-ПАН КОЦЬКИЙ- 
Свій


З нами з: 27.11.17
Востаннє: 07.11.19
Повідомлень: 77

2018-01-11 00:06  
Chelsea2177 написано:
Warcraft

Я навіть не знав про існування розширеної версії. А взагалі я не планую виставляти все підряд - якомога більше. Просто хочу поділитися своєю колекцією, щоб не тільки брати, але й віддавати.

pintg 
Свій


З нами з: 14.04.16
Востаннє: 18.11.19
Повідомлень: 141

2019-05-25 00:10  
Відеоряд оригінальний, чи містить жорсткі субтитри?
Ваш часовий пояс: GMT + 2 Години

Нова тема   Відповісти