Frame rate mode

Нові коментарі

Нова тема   Відповісти
немає
Автор Повідомлення
ZETMAN 
Свій


З нами з: 09.03.13
Востаннє: 20.04.21
Повідомлень: 85

2018-01-09 22:44  
Info
General
Complete name : D:\ВИДЕО\НА Раздачу\Йо-Йо\Сезон 1 Серія 2 Новий ніс (Йо-Йо).mp4
Format : MPEG-4
Format profile : Base Media
Codec ID : isom
File size : 316 MiB
Duration : 7mn 20s
Overall bit rate : 6 017 Kbps
Writing application : Lavf52.31.0

Video
ID : 1
Format : AVC
Format/Info : Advanced Video Codec
Format profile : [email protected]
Format settings, CABAC : Yes
Format settings, ReFrames : 4 frames
Codec ID : avc1
Codec ID/Info : Advanced Video Coding
Duration : 7mn 20s
Bit rate mode : Variable
Bit rate : 5 884 Kbps
Width : 1 920 pixels
Height : 1 080 pixels
Display aspect ratio : 16:9
Frame rate mode : Constant
Frame rate : 29.970 fps
Color space : YUV
Chroma subsampling : 4:2:0
Bit depth : 8 bits
Scan type : Progressive
Bits/(Pixel*Frame) : 0.095
Stream size : 309 MiB (98%)

Audio
ID : 2
Format :
Format/Info : Advanced Audio Codec
Format version : Version 4
Format profile : LC
Format settings, SBR : No
Codec ID : 40
Duration : 7mn 20s
Bit rate mode : Constant
Bit rate : 128 Kbps
Channel(s) : 2 channels
Channel positions : Front: L R
Sampling rate : 48.0 KHz
Stream size : 6.72 MiB (2%)
ZETMAN 
Свій


З нами з: 09.03.13
Востаннє: 20.04.21
Повідомлень: 85

2018-01-18 18:30  
Торрент оновлено! Замінено серій 1-7 додано 8-16! Приемного перегляду!
sergiyko.5 
Забанено
Забанено


З нами з: 25.02.16
Востаннє: 29.10.20
Повідомлень: 3648

2018-01-18 22:07  
11FrYkT,

Цитата:
Авторський реліз


Чому?

Цитата:
1080p


Розділ не той.
ZETMAN 
Свій


З нами з: 09.03.13
Востаннє: 20.04.21
Повідомлень: 85

2018-01-20 23:32  
sergiyko.5 написано:

1080p

Розділ не той.

Чому?
sergiyko.5 
Забанено
Забанено


З нами з: 25.02.16
Востаннє: 29.10.20
Повідомлень: 3648

2018-01-20 23:58  
Тут розділ "Мультсеріали", а вам потрібно розмістити "Мультсеріали в HD".
Знизу сторінки релізу під кнопкою "Нова тема" є "Перенести тему", тиснеш і переносиш.
bot 
робот


З нами з: 30.09.07
Востаннє: 26.05.05
Повідомлень: 27938

2018-01-21 10:48  
Тему перенесено з Мультсеріали до форуму Мультсеріали в HD


ZETMAN
leicheman 
Відео Гуртом - фільмокрай
Відео Гуртом - фільмокрай


З нами з: 03.07.14
Востаннє: 19.04.21
Повідомлень: 6142

2018-01-22 14:29  
Після спойлеру додайте знак дорівнює і підписи
Ось так для прикладу [spoiler=Скріншоти] тоді рамка спойлеру буде товстіша і зручніше відкривати(попадати)
igor911 
Модератор відео


З нами з: 18.01.08
Востаннє: 20.04.21
Повідомлень: 15886

2018-01-22 16:26  
sergiyko.5, leicheman написано:

виправив
ZETMAN 
Свій


З нами з: 09.03.13
Востаннє: 20.04.21
Повідомлень: 85

2018-01-26 20:45  
Цитата:
Бронзовий реліз

Наче був Авторський.
igor911 
Модератор відео


З нами з: 18.01.08
Востаннє: 20.04.21
Повідомлень: 15886

2018-01-26 20:56  
ZETMAN, "Авторський" ставиться за власноруч зроблене озвучення, а не за записане з ТБ.
dzuba_s0 
Новенький


З нами з: 25.01.18
Востаннє: 21.04.18
Повідомлень: 2

2018-01-29 00:35  
Станьте будь ласка на роздачу.
dzuba_s0 
Новенький


З нами з: 25.01.18
Востаннє: 21.04.18
Повідомлень: 2

2018-01-29 23:14  
Вшидкість дуже мала. Син не може дочекатись. Добавте більшу швидкість на роздачу. Дякую
Telepaiko 
Частий відвідувач


З нами з: 29.07.16
Востаннє: 18.04.21
Повідомлень: 30

2018-08-08 22:00  
Гарний мультик. Дітям сподобалось.
Ваш часовий пояс: GMT + 2 Години

Нова тема   Відповісти