Синя безодня / 47 Meters Down (2017) Remux 1080p Ukr/Eng | Sub Eng

Нові коментарі

Нова тема   Відповісти
Автор Повідомлення
staf777 
Відео Гуртом - підтримка та поширення
Відео Гуртом - підтримка та поширення


З нами з: 16.11.16
Востаннє: 04.06.20
Повідомлень: 3725

2018-01-08 20:15  
Синя безодня / 47 Meters Down (2017) Remux 1080p Ukr/Eng | Sub Eng

Синя безодня / 47 Meters Down (2017) Remux 1080p Ukr/Eng | Sub Eng


Жанр: жахи, трилер, драма, пригодницький
Країна: Велика Британія, США, Домініканська Республіка



Кінокомпанія: The Fyzz Facility, Tea Shop & Film Company, Entertainment Studios Motion Pictures, Dimension Films, Altitude Film Sales, Dragon Root Securities, Flexibon Films, Lantica Media
Режисер: Йоханес Робертс / Johannes Roberts
Актори: Менді Мур / Mandy Moore, Клер Голт / Claire Holt, Метью Модайн / Matthew Modine, Сантьяго Сегура / Santiago Segura, Яні Гельман / Yani Gellman, Кріс Джонсон / Chris Johnson та інші

Сюжет:
Сестри Кейт і Ліза приїхали на відпочинок до Мексики. У пошуках гострих відчуттів Кейт переконує сестру опуститися під воду в клітці і подивитися на білих акул. Але їх розвага перетворюється в пастку: клітка обривається, і дівчата опиняються на глибині 47 метрів з запасом кисню менше, ніж на годину в оточенні найнебезпечніших морських хижаків.

Режисер і сценарист Йоханес Робертс всю свою кар'єру присвятив фільмам жахів і трилерам, для більшості з яких він сам писав сценарій і ставав режисером. Дослівний переклад назви фільму "47 метрів вниз". Зніматися в своєму фільмі він запросив Менді Мур і Клер Голт, які до цього разом знімалися в серіалі "Щоденники вампіра".
Офіційний український трейлер:

Рейтинг MPAA: PG-13 - дітям до 13 років перегляд не бажаний
Вікова категорія: 16+
Тривалість: 01:29:17
Якість: Remux 1080p

Відео:
кодек:
розмір кадру: 1920x1080
бітрейт: 26 Мб/с

Аудіо #1:
мова: українська
переклад: багатоголосий закадровий | ААА-sound
кодек: 5.1
бітрейт: 384 кб/с
Інформація про озвучення
Переклад: Юлія Когут
Режисер: Олександр Єфімов
Ролі озвучили: Юлія Перенчук, Катерина Буцька, Андрій Федінчик, Дмитро Завадський.

Фільм озвучено студією ААА-sound у 2017 році на замовлення компанії "Вольга Україна"
Аудіо #2:
мова: англійська
переклад: оригінал
кодек: -HD MA 5.1
бітрейт: 3686 кб/с

Субтитри :
мова: англійська
тип: пререндерні
формат: *.pgs
Info
Код:
General
Unique ID                                : 208637421115039667768109995010859993519 (0x9CF61B0E23FE80AF9429800F634009AF)
Complete name                            : P:\HD українською » Фільми в HD\Жахи\Sinyaya.bezdna.2017.Remux.1080p.nnm-club\BDMV\STREAM\47 Meters Down (2017) Remux 1080p [Ukr][Eng] [Sub Eng] [Hurtom].
Format                                   :
Format version                           : Version 4 / Version 2
File size                                : 18.7 GiB
Duration                                 : 1 h 29 min
Overall bit rate mode                    : Variable
Overall bit rate                         : 30.1 Mb/s
Movie name                               : 47 Meters Down (2017) Remux 1080p Ukr/Eng | Sub Eng[Hurtom]
Encoded date                             : UTC 2018-01-16 16:42:58
Writing application                      : v9.8.0 ('Kuglblids') 64bit
Writing library                          : libebml v1.3.4 + v1.4.5

Video
ID                                       : 1
Format                                   : AVC
Format/Info                              : Advanced Video Codec
Format profile                           : [email protected]
Format settings, CABAC                   : Yes
Format settings, ReFrames                : 4 frames
Codec ID                                 : V_MPEG4/ISO/AVC
Duration                                 : 1 h 29 min
Bit rate mode                            : Variable
Bit rate                                 : 26.0 Mb/s
Maximum bit rate                         : 37.0 Mb/s
Width                                    : 1 920 pixels
Height                                   : 1 080 pixels
Display aspect ratio                     : 16:9
Frame rate mode                          : Constant
Frame rate                               : 23.976 (24000/1001) FPS
Color space                              : YUV
Chroma subsampling                       : 4:2:0
Bit depth                                : 8 bits
Scan type                                : Progressive
Bits/(Pixel*Frame)                       : 0.522
Stream size                              : 16.2 GiB (86%)
Title                                    : 47 Meters Down (2017)
Default                                  : Yes
Forced                                   : No

Audio #1
ID                                       : 2
Format                                   : AC-3
Format/Info                              : Audio Coding 3
Mode extension                           : CM (complete main)
Format settings, Endianness              : Big
Codec ID                                 : A_AC3
Duration                                 : 1 h 29 min
Bit rate mode                            : Constant
Bit rate                                 : 384 kb/s
Channel(s)                               : 6 channels
Channel positions                        : Front: L C R, Side: L R, LFE
Sampling rate                            : 48.0 kHz
Frame rate                               : 31.250 FPS (1536 spf)
Bit depth                                : 16 bits
Compression mode                         : Lossy
Stream size                              : 245 MiB (1%)
Title                                    : [UA-MVO]
Language                                 : Ukrainian
Default                                  : Yes
Forced                                   : Yes

Audio #2
ID                                       : 3
Format                                   :
Format/Info                              : Digital Theater Systems
Format profile                           : MA / Core
Mode                                     : 16
Format settings, Endianness              : Big
Codec ID                                 : A_DTS
Duration                                 : 1 h 29 min
Bit rate mode                            : Variable / Constant
Bit rate                                 : 3 686 kb/s / 1 509 kb/s
Channel(s)                               : 6 channels
Channel positions                        : Front: L C R, Side: L R, LFE
Sampling rate                            : 48.0 kHz
Frame rate                               : 93.750 FPS (512 spf)
Bit depth                                : 24 bits
Compression mode                         : Lossless / Lossy
Stream size                              : 2.30 GiB (12%)
Title                                    : [Original]
Language                                 : English
Default                                  : No
Forced                                   : No

Text
ID                                       : 4
Format                                   : PGS
Muxing mode                              : zlib
Codec ID                                 : S_HDMV/PGS
Codec ID/Info                            : Picture based subtitle format used on BDs/HD-DVDs
Duration                                 : 1 h 21 min
Bit rate                                 : 23.8 kb/s
Count of elements                        : 2042
Stream size                              : 13.9 MiB (0%)
Language                                 : English
Default                                  : Yes
Forced                                   : No
Скріншоти:



Джерело: &


Золотий реліз (завантажене не впливає на рейтинг)
 Трекер:    Зареєстрований   

Завантажити / скачати фільм українською



відео для новачків



 Зареєстрований:   2018-01-16 20:57
 Розмір:   18.75 GB 
 Оцінка фільму:   7/10 (Голосів: 13)
   
Інші релізи
   Синя безодня / 47 Meters Down (2017) legos25  4 / 0   1.35 GB   2017-09-17 12:10 
   Синя безодня / 47 Meters Down (2017) 1080p Ukr/Eng | Sub Eng igor911  1 / 0   9.97 GB   2017-09-16 21:14 
   Синя безодня / 47 Meters Down (2017) AVC Ukr/Eng | Sub Eng 11FrYkT  1 / 0   2.35 GB   2017-09-16 19:03 
   Синя безодня / 47 Meters Down (2017) 720p Ukr/Eng | Sub Eng 11FrYkT  1 / 0   4.1 GB   2017-09-16 18:35 
Комбат1995 
Поважний учасник


З нами з: 09.01.16
Востаннє: 05.06.20
Повідомлень: 153

2018-01-08 20:31  
А " Вітряна ріка " скоро буде? Півроку вже пройшло від прем'єри...
legos25 
Відео Гуртом - запис з ТБ
Відео Гуртом - запис з ТБ


З нами з: 02.02.10
Востаннє: 28.05.20
Повідомлень: 1336

2018-01-08 21:36  
Комбат1995 написано:
А " Вітряна ріка " скоро буде? Півроку вже пройшло від прем'єри...

Дубляж втрачено, не буде.

Комбат1995 
Поважний учасник


З нами з: 09.01.16
Востаннє: 05.06.20
Повідомлень: 153

2018-01-08 21:56  
І в багатьох нових фільмах втрачено український дубляж?
Bochys 
Свій


З нами з: 09.09.10
Востаннє: 04.06.20
Повідомлень: 52

2018-01-11 00:21  
10.01.2018 по новому показували цей фільм з дубляжем. можливо хтось записав?
DEAN123321 
Новенький


З нами з: 28.01.16
Востаннє: 20.05.20
Повідомлень: 21

2018-01-13 18:07  
Виправте будь ласка, вікове обмеження до фільму - 16+.
bot 
робот


З нами з: 30.09.07
Востаннє: 26.05.05
Повідомлень: 24623

2018-01-16 20:57  
Тему перенесено з Анонси релізів до форуму Фільми в HD


staf777

dimic 
Частий відвідувач


З нами з: 12.07.09
Востаннє: 03.06.20
Повідомлень: 35

2018-01-17 03:11  
останній скрін - ще той спойлер
igor911 
Модератор відео


З нами з: 18.01.08
Востаннє: 05.06.20
Повідомлень: 14762

2018-01-17 10:32  
dimic написано:
спойлер

прибрав

F.R.F.D! 
Частий відвідувач


З нами з: 13.03.12
Востаннє: 20.05.20
Повідомлень: 30

2018-01-19 07:14  
дякую :з
Ваш часовий пояс: GMT + 2 Години

Нова тема   Відповісти