Бруклін 9-9 (Сезон 2) / Brooklyn Nine-Nine (Season 2) (2014-2015) AVC Ukr/Eng

Нові коментарі

Нова тема   Відповісти
Автор Повідомлення
PuMa.ua 
VIP


З нами з: 29.08.08
Востаннє: 10.11.18
Повідомлень: 282

2018-01-07 18:30  
Бруклін 9-9 (Сезон 2) / Brooklyn Nine-Nine (Season 2) (2014-2015) AVC Ukr/Eng


Жанр: комедія, кримінальний
Країна: США


Кінокомпанія / телеканал: Fremulon, Dr. Goor Productions, Lord Miller, 3 Arts Entertainment, Universal Television / Fox
Режисер: Філ Лорд, Кріс Міллер, Джейсон Енслер
Актори: Енді Семберґ, Андре Броґер, Террі Крюс, Мелісса Фумеро, Джо Ло Трулі, Стефані Беатріз, Джейд Або, Фред Армізен, Дірк Блокер, Річард Фінкельштейн та інші

Сюжет:
Історія про те, що відбувається, коли у детектива, який не сприймає нічого серйозно, з'являється новий керівник, який хоче, щоб він ріс і з повагою ставився до своєї посади.


Тривалість: 1 серія: 21:50 (цілком серій: 23)
Перелік серій
1. Undercover
2. Chocolate Milk
3. The Jimmy Jab Games
4. Halloween II
5. The Mole
6. Jake and Sophia
7. Lockdown
8. USPIS
9. The Road Trip
10. "The Pontiac Bandit Returns
11. Stakeout
12. Beach House
13. Payback
14. Defense Rests
15. Windbreaker City
16. The Wednesday Incident
17. Boyle-Linetti Wedding
18. Captain Peralta
19. Sabotage
20. AC/DC
21. Det. Dave Majors
22. The Chopper
23. Johnny and Dora
Якість: AVC
Відео:
кодек:
розмір кадру: 720 х 480
бітрейт: ~1200 кб/с

Аудіо # 1:
мова: українська
переклад: багатоголосий закадровий
кодек: 2.0
бітрейт: 192 кб/с

Аудіо # 2:
мова: англійська
переклад: оригінал
кодек: 2ch
бітрейт: 64 кб/с

Переклад і озвучення виконано:


Info
General
Unique ID : 241676894531556462756212327188092243095 (0xB5D146DCA89E56D7A8408B085A754C97)
Complete name : F:\Brooklyn.Nine-Nine.s02..Ukr.Eng\Brooklyn.Nine-Nine.s02e01..Ukr.Eng.
Format :
Format version : Version 4 / Version 2
File size : 227 MiB
Duration : 21 min 43 s
Overall bit rate mode : Variable
Overall bit rate : 1 460 kb/s
Encoded date : UTC 2018-01-06 13:17:22
Writing application : v8.2.0 ('World of Adventure') 32bit
Writing library : libebml v1.3.1 + v1.4.2

Video
ID : 1
Format : AVC
Format/Info : Advanced Video Codec
Format profile : [email protected]
Format settings : CABAC / 3 Ref Frames
Format settings, CABAC : Yes
Format settings, ReFrames : 3 frames
Codec ID : V_MPEG4/ISO/AVC
Duration : 21 min 43 s
Bit rate mode : Variable
Bit rate : 1 210 kb/s
Maximum bit rate : 1 815 kb/s
Width : 720 pixels
Height : 480 pixels
Display aspect ratio : 16:9
Frame rate mode : Constant
Frame rate : 23.976 (24000/1001) FPS
Color space : YUV
Chroma subsampling : 4:2:0
Bit depth : 8 bits
Scan type : Progressive
Bits/(Pixel*Frame) : 0.146
Stream size : 187 MiB (82%)
Writing library : core 118
Encoding settings : cabac=1 / ref=3 / deblock=1:0:0 / analyse=0x1:0x111 / me=umh / subme=10 / psy=1 / psy_rd=1.00:0.00 / mixed_ref=1 / me_range=24 / chroma_me=1 / trellis=2 / 8x8dct=0 / cqm=0 / deadzone=21,11 / fast_pskip=1 / chroma_qp_offset=-2 / threads=6 / sliced_threads=0 / nr=0 / decimate=1 / interlaced=0 / bluray_compat=0 / constrained_intra=0 / bframes=2 / b_pyramid=0 / b_adapt=2 / b_bias=0 / direct=3 / weightb=1 / open_gop=0 / weightp=2 / keyint=48 / keyint_min=25 / scenecut=0 / intra_refresh=0 / rc_lookahead=0 / rc=2pass / mbtree=1 / bitrate=1210 / ratetol=1.0 / qcomp=0.50 / qpmin=6 / qpmax=51 / qpstep=4 / cplxblur=20.0 / qblur=0.5 / vbv_maxrate=1815 / vbv_bufsize=2420 / nal_hrd=vbr / ip_ratio=1.40 / aq=1:1.00
Default : Yes
Forced : No

Audio #1
ID : 2
Format : AC-3
Format/Info : Audio Coding 3
Codec ID : A_AC3
Duration : 21 min 43 s
Bit rate mode : Constant
Bit rate : 192 kb/s
Channel(s) : 2 channels
Channel positions : Front: L R
Sampling rate : 48.0 kHz
Frame rate : 31.250 FPS (1536 SPF)
Bit depth : 16 bits
Compression mode : Lossy
Stream size : 29.8 MiB (13%)
Language : Ukrainian
Service kind : Complete Main
Default : Yes
Forced : No

Audio #2
ID : 3
Format :
Format/Info : Advanced Audio Codec
Format profile : HE- / LC
Format settings : Explicit
Codec ID : A_AAC-2
Duration : 21 min 43 s
Bit rate : 62.7 kb/s
Channel(s) : 2 channels
Channel positions : Front: L R
Sampling rate : 48.0 kHz / 24.0 kHz
Frame rate : 23.438 FPS (1024 SPF)
Compression mode : Lossy
Stream size : 9.74 MiB (4%)
Language : English
Default : No
Forced : No
Скріншоти:



Джерело:
Особиста оцінка: 10 - без зайвих вагань рекомендую всім!

За постер подяка пану mishka1998


Бронзовий реліз (на рейтинг впливає 75% завантаженого)
 Трекер:    Зареєстрований   

Завантажити / скачати серіал українською



відео для новачків



 Зареєстрований:   2018-01-07 18:30
 Розмір:   4.57 GB 
 Оцінка серіалу:   9.9/10 (Голосів: 20)
   
Estranded 
VIP


З нами з: 09.02.14
Востаннє: 14.11.18
Повідомлень: 1230

2018-01-07 20:58  
Краща якість планується?
Neytreenor 
Відео Гуртом - запис з ТБ
Відео Гуртом - запис з ТБ


З нами з: 03.04.11
Востаннє: 14.11.18
Повідомлень: 1484

2018-01-07 21:05  
Якщо нема інших охочих, зроблю завтра 1080p.
PuMa.ua 
VIP


З нами з: 29.08.08
Востаннє: 10.11.18
Повідомлень: 282

2018-01-07 21:23  
Estranded
місця нема, тому якщо є зацікавлені - ласкаво прошу. ляже прекрасно під будь який Netflix вебріп/дл, але і під амазон має також підійти без проблем.

Neytreenor 
Відео Гуртом - запис з ТБ
Відео Гуртом - запис з ТБ


З нами з: 03.04.11
Востаннє: 14.11.18
Повідомлень: 1484

2018-01-08 00:18  
Neytreenor написано:
Якщо нема інших охочих, зроблю завтра 1080p.

Ні, передумав. Озвучення паскудне та й звук під ті два відео, що я спробував, не підходить.

don pedro 
Попереджень: 1
Попереджень: 1 


З нами з: 29.06.11
Востаннє: 14.11.18
Повідомлень: 12555

2018-01-08 00:27  
Серіал чудовий, але одразу попереджую усіх стурбованих (щоб потім тут не було висерів): лідер цієї зграї та один з головних героїв серіалу - відкритий чорний гей, гордий як і через свою орієнтацію, так і через свою расу, який живе в законі з іншим чоловіком.
Dark Invader 
Модератор відео


З нами з: 06.01.11
Востаннє: 14.11.18
Повідомлень: 2456

2018-01-08 12:17  
Голоси інші ніж в першому сезоні?
Estranded 
VIP


З нами з: 09.02.14
Востаннє: 14.11.18
Повідомлень: 1230

2018-01-08 13:55  
Dark Invader
Перший сезон дивився доволі давно, але ніби ті самі.

piznajko 
Відео Гуртом - субтитрування
Відео Гуртом - субтитрування


З нами з: 24.02.09
Востаннє: 12.11.18
Повідомлень: 1721

2018-01-09 17:33  
А хто робить українське озвучення для Paramount Comedy Ukraine - ТТП?
leicheman 
Відео Гуртом - підтримка та поширення
Відео Гуртом - підтримка та поширення


З нами з: 03.07.14
Востаннє: 14.11.18
Повідомлень: 2922

2018-01-10 13:07  
piznajko написано:
А хто робить українське озвучення для Paramount Comedy Ukraine - ТТП?

для ґолдбергів студія 1+1 точно, але сумніваюся, що для якихось інших серіалів вони ттп найняли для озвучення коли є своя студія.

havryk 
VIP


З нами з: 29.06.10
Востаннє: 14.11.18
Повідомлень: 780

2018-01-10 14:37  
leicheman написано:
але сумніваюся, що для якихось інших серіалів вони ттп найняли

https://toloka.to/t85135#949136

TomVovkylaka 
Свій


З нами з: 03.01.10
Востаннє: 28.10.18
Повідомлень: 98

2018-01-11 00:46  
Величезна вдячність і респект автору за роздачу! Вже й не думав знайти 2 сезон українською
Estranded 
VIP


З нами з: 09.02.14
Востаннє: 14.11.18
Повідомлень: 1230

2018-01-12 12:01  
Вже не так круто і феєрично як в першому сезоні! Але достойно.
8/10 — це було смішно!
Тепер чекаю на третій сезонHappy

Anonymous... 
Свій


З нами з: 11.01.18
Востаннє: 07.11.18
Повідомлень: 138

2018-01-20 17:11  
Українізований постер від mishka1998
Код:
[url=http://posters.hurtom.com/albums/series/brukl-n-dev-yat-dev-yat.jpg][img]http://posters.hurtom.com/cache/series/brukl-n-dev-yat-dev-yat_550.jpg[/img][/url]


Xshot 
VIP


З нами з: 22.09.09
Востаннє: 11.11.18
Повідомлень: 1651

2018-03-01 19:06  
От лажа.. Доведеться рідним російською дивитися - AVI-релізу нема, а доріжки від цього релізу нікуди не підходять.. А щоб кожну перекодувати в 25fps + перезвести - занадто багато мороки і часу((
fl_fl 
Відео Гуртом - фільмокрай
Відео Гуртом - фільмокрай


З нами з: 26.05.09
Востаннє: 14.11.18
Повідомлень: 3117

2018-03-02 07:28  
leicheman написано:
для ґолдбергів студія 1+1 точно, але сумніваюся, що для якихось інших серіалів вони ттп найняли для озвучення коли є своя студія.

Якраз для Голбергів саме ТТП і озвучила. У титрах сказано голосом ТТП - Озвучено на замовлення 1+1.

Більшість серіалів озвучували на 1+1, але є кілька виключень (як Голдберги).

ALFROMEDA 
Відео Гуртом - підтримка та поширення
Відео Гуртом - підтримка та поширення


З нами з: 09.07.12
Востаннє: 14.11.18
Повідомлень: 324

2018-03-08 13:09  
Xshot
на cloudconvert за 2,5 хв конвертує серію. З безкоштовним аккаунтом в день можна 10 конвертувати
1 серія в аві https://fex.net/#!242957601285?fileId=340418925

leicheman 
Відео Гуртом - підтримка та поширення
Відео Гуртом - підтримка та поширення


З нами з: 03.07.14
Востаннє: 14.11.18
Повідомлень: 2922

2018-03-08 13:15  
fl_fl написано:
Якраз для Голбергів саме ТТП і озвучила. У титрах сказано голосом ТТП - Озвучено на замовлення 1+1.

так це я вже знаю, в перших серіях які я бачив був цей момент титрів обрізаний, тому і подумав, що то студія 1+1.

Xshot 
VIP


З нами з: 22.09.09
Востаннє: 11.11.18
Повідомлень: 1651

2018-03-08 21:50  
ALFROMEDA
Дякую за наводку! Спробую)

Estranded 
VIP


З нами з: 09.02.14
Востаннє: 14.11.18
Повідомлень: 1230

2018-04-06 15:10  
Коли буде реліз 3 сезону? По Paramount показують.
-_-В_E_N_D_E_R-_- 
Забанено
Забанено


З нами з: 22.04.18
Востаннє: 24.06.18
Повідомлень: 190

2018-04-24 23:39  
Estranded
Він уже є, а от з четвертим буде затримка, ніхто не записав перші 6 серій, а коли повтор покажуть невідомо.

V.i.R.u.S 
Свій


З нами з: 19.11.10
Востаннє: 14.11.18
Повідомлень: 85

2018-07-15 19:56  
Планується 2 сезон 1080 ?
Ваш часовий пояс: GMT + 2 Години

Нова тема   Відповісти