Смурфики: Загублене містечко / Smurfs: The Lost Village (2017) Remux 1080p Ukr/Eng | Sub Ukr/Eng

Нові коментарі

Нова тема   Відповісти
Останній раз роздавалося rura_ukrop (2021-03-08)
Автор Повідомлення
staf777 
Відео Гуртом - підтримка та поширення
Відео Гуртом - підтримка та поширення


З нами з: 16.11.16
Востаннє: 08.03.21
Повідомлень: 5117

2018-01-07 17:17  
Смурфики: Загублене містечко / Smurfs: The Lost Village (2017) Remux 1080p Ukr/Eng | Sub Ukr/Eng

Смурфики: Загублене містечко / Smurfs: The Lost Village (2017) Remux 1080p Ukr/Eng | Sub Ukr/Eng

«Вони завжди поміж нас»

Жанр: анімація, комедія, пригоди, сімейний
Країна: США



Кінокомпанія: Columbia Pictures, Village Roadshow Pictures
Режисер: Келлі Есбері
Ролі озвучили: Демі Ловато, Джо Манганьєлло, Рейн Вілсон, Менді Петінкін, Денні Пуді, Джек МакБрайер, Джейк Джонсон, Тітус Берджесс, Гебріел Іглесіас, Мішель Родрігес та інші

Сюжет:
Смурфики, милі гноми блакитного кольору, живуть в грибах. В їхньому містечку ніколи не буває проблем. Кожен зайнятий своєю справою і лише Смурфетта ніяк не може заспокоїтися. Вона дуже хоче зрозуміти свою міссію і знайти справу до душі. Одного разу, гуляючи по чарівному лісі, вона зустрічає дивну істоту і відправляється в захоплюючу подорож.


Тривалість: 01:29:46
Якість: Remux 1080p
Відео:
кодек:
розмір кадру: 1920x1080
бітрейт: 25,8 Mб/с

Аудіо # 1:
мова: українська
переклад: професійний дубльований
кодек: 5.1
бітрейт: 640 кб/с

Аудіо # 2:
мова: англійська
переклад: оригінал
кодек: -HD MA 5.1
бітрейт: 2353 кб/с

Аудіо # 3:
мова: англійська
переклад: описова
кодек: 5.1
бітрейт: 640 кб/с

Аудіо # 4:
мова: англійська
переклад: коментарі
кодек: 2.0
бітрейт: 192 кб/с

Субтитри # 1: (Forced)
мова: українська
тип: програмні (м'які)
формат: *.srt

Субтитри # 2:
мова: українська
тип: пререндерні
формат: *.pgs

Субтитри # 3-5:
мова: англійська
тип: пререндерні
формат: *.pgs
Info
Код:
General
Unique ID                   : 29213846961833118209797899917535258225 (0x15FA61DC26178674F2F42DBCEE64A671)
Complete name               : J:\HD українською » Мультфільми в HD\Smurfs The Lost Village (2017) Remux 1080p [UKR_ENG] [Hurtom].
Format                      :
Format version              : Version 4
File size                   : 18.7 GiB
Duration                    : 1 h 29 min
Overall bit rate mode       : Variable
Overall bit rate            : 29.8 Mb/s
Movie name                  : Smurfs: The Lost Village (2017) Remux 1080p [UKR_ENG] [Hurtom]
Encoded date                : UTC 2019-03-09 20:37:13
Writing application         : v30.1.0 ('Forever And More') 64-bit
Writing library             : libebml v1.3.6 + v1.4.9
Cover                       : Yes
Attachments                 : cover

Video
ID                          : 1
Format                      : AVC
Format/Info                 : Advanced Video Codec
Format profile              : [email protected]
Format settings             : CABAC / 2 Ref Frames
Format settings, CABAC      : Yes
Format settings, ReFrames   : 2 frames
Format settings, GOP        : M=1, N=10
Codec ID                    : V_MPEG4/ISO/AVC
Duration                    : 1 h 29 min
Bit rate mode               : Variable
Bit rate                    : 25.8 Mb/s
Width                       : 1 920 pixels
Height                      : 1 080 pixels
Display aspect ratio        : 16:9
Frame rate mode             : Constant
Frame rate                  : 23.976 (24000/1001) FPS
Color space                 : YUV
Chroma subsampling          : 4:2:0
Bit depth                   : 8 bits
Scan type                   : Progressive
Bits/(Pixel*Frame)          : 0.520
Stream size                 : 16.2 GiB (87%)
Title                       : Smurfs: The Lost Village (2017)
Default                     : Yes
Forced                      : No

Audio #1
ID                          : 2
Format                      : AC-3
Format/Info                 : Audio Coding 3
Commercial name             : Dolby Digital
Codec ID                    : A_AC3
Duration                    : 1 h 29 min
Bit rate mode               : Constant
Bit rate                    : 640 kb/s
Channel(s)                  : 6 channels
Channel layout              : L R C LFE Ls Rs
Sampling rate               : 48.0 kHz
Frame rate                  : 31.250 FPS (1536 SPF)
Bit depth                   : 16 bits
Compression mode            : Lossy
Delay relative to video     : -25 ms
Stream size                 : 411 MiB (2%)
Title                       : 5.1 @ 640 kbps
Language                    : Ukrainian
Service kind                : Complete Main
Default                     : Yes
Forced                      : Yes

Audio #2
ID                          : 3
Format                      : XLL
Format/Info                 : Digital Theater Systems
Commercial name             : -HD Master Audio
Codec ID                    : A_DTS
Duration                    : 1 h 29 min
Bit rate mode               : Variable
Bit rate                    : 2 353 kb/s
Channel(s)                  : 6 channels
Channel layout              : C L R Ls Rs LFE
Sampling rate               : 48.0 kHz
Frame rate                  : 93.750 FPS (512 SPF)
Bit depth                   : 16 bits
Compression mode            : Lossless
Stream size                 : 1.48 GiB (8%)
Title                       : Original
Language                    : English
Default                     : No
Forced                      : No

Audio #3
ID                          : 4
Format                      : AC-3
Format/Info                 : Audio Coding 3
Commercial name             : Dolby Digital
Codec ID                    : A_AC3
Duration                    : 1 h 29 min
Bit rate mode               : Constant
Bit rate                    : 640 kb/s
Channel(s)                  : 6 channels
Channel layout              : L R C LFE Ls Rs
Sampling rate               : 48.0 kHz
Frame rate                  : 31.250 FPS (1536 SPF)
Bit depth                   : 16 bits
Compression mode            : Lossy
Delay relative to video     : -25 ms
Stream size                 : 411 MiB (2%)
Title                       : [Descriptive]
Language                    : English
Service kind                : Complete Main
Default                     : No
Forced                      : No

Audio #4
ID                          : 5
Format                      : AC-3
Format/Info                 : Audio Coding 3
Commercial name             : Dolby Digital
Codec ID                    : A_AC3
Duration                    : 1 h 29 min
Bit rate mode               : Constant
Bit rate                    : 192 kb/s
Channel(s)                  : 2 channels
Channel layout              : L R
Sampling rate               : 48.0 kHz
Frame rate                  : 31.250 FPS (1536 SPF)
Bit depth                   : 16 bits
Compression mode            : Lossy
Delay relative to video     : -25 ms
Stream size                 : 123 MiB (1%)
Language                    : English
Service kind                : Complete Main
Default                     : No
Forced                      : No

Text #1
ID                          : 6
Format                      : UTF-8
Codec ID                    : S_TEXT/UTF8
Codec ID/Info               : UTF-8 Plain Text
Duration                    : 3 s 379 ms
Bit rate                    : 125 b/s
Count of elements           : 1
Stream size                 : 53.0 Bytes (0%)
Title                       : Forced
Language                    : Ukrainian
Default                     : Yes
Forced                      : Yes

Text #2
ID                          : 7
Format                      : PGS
Muxing mode                 : zlib
Codec ID                    : S_HDMV/PGS
Codec ID/Info               : Picture based subtitle format used on BDs/HD-DVDs
Duration                    : 1 h 28 min
Bit rate                    : 48.4 kb/s
Count of elements           : 2196
Stream size                 : 30.6 MiB (0%)
Language                    : Ukrainian
Default                     : No
Forced                      : No

Text #3
ID                          : 8
Format                      : PGS
Muxing mode                 : zlib
Codec ID                    : S_HDMV/PGS
Codec ID/Info               : Picture based subtitle format used on BDs/HD-DVDs
Duration                    : 1 h 29 min
Bit rate                    : 61.1 kb/s
Count of elements           : 3512
Stream size                 : 39.0 MiB (0%)
Language                    : English
Default                     : No
Forced                      : No

Text #4
ID                          : 9
Format                      : PGS
Muxing mode                 : zlib
Codec ID                    : S_HDMV/PGS
Codec ID/Info               : Picture based subtitle format used on BDs/HD-DVDs
Duration                    : 1 h 26 min
Bit rate                    : 41.7 kb/s
Count of elements           : 2190
Stream size                 : 25.8 MiB (0%)
Language                    : English
Default                     : No
Forced                      : No

Text #5
ID                          : 10
Format                      : PGS
Muxing mode                 : zlib
Codec ID                    : S_HDMV/PGS
Codec ID/Info               : Picture based subtitle format used on BDs/HD-DVDs
Duration                    : 1 h 26 min
Bit rate                    : 82.5 kb/s
Count of elements           : 3279
Stream size                 : 51.3 MiB (0%)
Language                    : English
Default                     : No
Forced                      : No
Скріншоти








Джерело: &


Золотий реліз (завантажене не впливає на рейтинг)
 Трекер:    Зареєстрований   

Завантажити / скачати мультфільм українською



відео для новачків



 Зареєстрований:   2019-03-09 23:16
 Розмір:   18.66 GB 
 Оцінка мультфільму:   7.5/10 (Голосів: 12)
   
staf777 
Відео Гуртом - підтримка та поширення
Відео Гуртом - підтримка та поширення


З нами з: 16.11.16
Востаннє: 08.03.21
Повідомлень: 5117

2019-03-09 23:25  
Замінив доріжку з 
Ваш часовий пояс: GMT + 2 Години

Нова тема   Відповісти