Шибайголови / Renegades (2017) 720p Ukr/Eng | Sub Eng

Нові коментарі

Нова тема   Відповісти
Автор Повідомлення
Anonymous 







2018-01-07 13:39  
Шибайголови / Renegades (2017) 720p Ukr/Eng | Sub Eng

Шибайголови / Renegades (2017) 720p Ukr/Eng | Sub Eng


Жанр: бойовик, пригодницький, військовий, трилер
Країна: Франція, Бельгія, Німеччина, США



Кінокомпанія: EuropaCorp, Canal+, Belga Productions, CB Films, Studio Babelsberg, DCS
Режисер: Стівен Квейл / Steven Quale
Актори: Дж. К. Сіммонс / J.K. Simmons, Салліван Степлтон / Sullivan Stapleton, Юен Бремнер / Ewen Bremner, Клеменс Шик / Clemens Schick, Сільвія Гукс / Sylvia Hoeks, Дімітрі Леонідас / Dimitri Leonidas, Чарлі Б'юлі / Charlie Bewley, Діармейд Муртаг / Diarmaid Murtagh, Джошуа Генрі / Joshua Henry, Славко Собін / Slavko Sobin та інші

Сюжет:
В одному з озер постраждалої від війни Боснії команда спецзагону ВМС "Морські котики" знаходить скарби, і тепер просто необхідно розгадати таємницю, пов'язану з цією підводною знахідкою.
Офіційний український трейлер:


Рейтинг MPAA: PG-13 - дітям до 13 років перегляд не бажаний
Вікова категорія: 12+
Тривалість: 01:45:56
Якість: 720p [HDChina, з італійського блурея]
Відео:
кодек:
розмір кадру: 1280 х 536
бітрейт: 4634 кб/с [crf=16.3]

Аудіо # 1:
мова: українська
переклад: професійний дубльований | студія ААА-sound
кодек: 2.0 [стерео]
бітрейт: 192 кб/с
Інформація про дубляж
Переклад: Юлія Когут
Режисер дубляжу: Олександр Єфімов
Ролі дублювали: Дмитро Гаврилов, Катерина Буцька, Андрій Мостренко, Павло Скороходько, Дмитро Сова, Іван Розін, Дмитро Завадський, Михайло Кришталь, Юлія Перенчук, Андрій Альохін, Юрій Ребрик, Ярослав Чорненький, Кирило Нікітенко та інші.

Фільм дубльовано студією ААА-sound у 2017 році на замовлення компанії Кіноманія.
Аудіо # 2:
мова: англійська
переклад: оригінал
кодек: 5.1
бітрейт: 640 кб/с

Субтитри :
мова: італійська (форсовані на німецьку та хорватську мови)
тип: жорсткі (вбудовані)

Субтитри # 1:
мова: українська (форсовані)
тип: програмні (м'які)
формат: *.srt

Субтитри # 2:
мова: англійська
тип: програмні (м'які)
формат: *.srt

Збережено оригінальні розділи, як на Blu-ray
Info та log
Код:
Complete name               : Renegades (2017) [Ukr,Eng sub.Eng] 720p [Hurtom].
Format                      :
Format version              : Version 4 / Version 2
File size                   : 4.05 GiB
Duration                    : 1 h 45 min
Overall bit rate            : 5 468 kb/s
Movie name                  : Шибайголови / Renegades (2017) [Ukr,Eng sub.Eng] 720p [Hurtom]
Released date               : 2017
Encoded date                : UTC 2018-03-30 16:31:48
Writing application         : v21.0.0 ('Tardigrades Will Inherit The Earth') 64-bit
Writing library             : libebml v1.3.5 + v1.4.8
Cover                       : Yes
Comment                     : http://www.imdb.com/title/tt4106376/
Attachments                 : cover.jpg
ARTIST                      : Дж. К. Сіммонс / J.K. Simmons, Салліван Степлтон / Sullivan Stapleton, Юен Бремнер / Ewen Bremner, Клеменс Шик / Clemens Schick, Сільвія Гукс / Sylvia Hoeks, Дімітрі Леонідас / Dimitri Leonidas, Чарлі Б'юлі / Charlie Bewley, Діармейд Муртаг / Diarmaid Murtagh, Джошуа Генрі / Joshua Henry, Славко Собін / Slavko Sobin та інші
DIRECTOR                    : Стівен Квейл / Steven Quale
GENRE                       : бойовик, військовий, трилер
SYNOPSIS                    : В одному з озер постраждалої від війни Боснії команда спецзагону ВМС "Морські котики" знаходить скарби, і тепер просто необхідно розгадати таємницю, пов'язану з цією підводною знахідкою...
Url                         : https://toloka.to/t86374

Video
ID                          : 1
Format                      : AVC
Format/Info                 : Advanced Video Codec
Format profile              : [email protected]
Format settings             : CABAC / 12 Ref Frames
Format settings, CABAC      : Yes
Format settings, ReFrames   : 12 frames
Codec ID                    : V_MPEG4/ISO/AVC
Duration                    : 1 h 45 min
Bit rate                    : 4 634 kb/s
Width                       : 1 280 pixels
Height                      : 536 pixels
Display aspect ratio        : 2.40:1
Frame rate mode             : Constant
Frame rate                  : 24.000 FPS
Color space                 : YUV
Chroma subsampling          : 4:2:0
Bit depth                   : 8 bits
Scan type                   : Progressive
Bits/(Pixel*Frame)          : 0.281
Stream size                 : 3.43 GiB (85%)
Title                       : Шибайголови / Renegades (2017) 720p [HDChina, Blu-ray ITA]
Writing library             : core 148 r2744kMod b97ae06
Encoding settings           : cabac=1 / ref=12 / deblock=1:-3:-3 / analyse=0x3:0x133 / me=umh / subme=11 / psy=1 / fade_compensate=0.00 / psy_rd=1.05:0.00 / mixed_ref=1 / me_range=48 / chroma_me=1 / trellis=2 / 8x8dct=1 / cqm=0 / deadzone=21,11 / fast_pskip=0 / chroma_qp_offset=-2 / threads=12 / lookahead_threads=2 / sliced_threads=0 / nr=0 / decimate=0 / interlaced=0 / bluray_compat=0 / constrained_intra=0 / bframes=8 / b_pyramid=2 / b_adapt=2 / b_bias=0 / direct=3 / weightb=1 / open_gop=0 / weightp=2 / keyint=240 / keyint_min=2 / scenecut=40 / intra_refresh=0 / rc_lookahead=60 / rc=crf / mbtree=0 / crf=16.3000 / qcomp=0.70 / qpmin=0 / qpmax=69 / qpstep=4 / vbv_maxrate=50000 / vbv_bufsize=30000 / crf_max=0.0 / nal_hrd=none / filler=0 / ip_ratio=1.25 / pb_ratio=1.20 / aq=3:0.90
Language                    : English
Default                     : Yes
Forced                      : No

Audio #1
ID                          : 2
Format                      : AC-3
Format/Info                 : Audio Coding 3
Codec ID                    : A_AC3
Duration                    : 1 h 45 min
Bit rate mode               : Constant
Bit rate                    : 192 kb/s
Channel(s)                  : 2 channels
Channel positions           : Front: L R
Sampling rate               : 48.0 kHz
Frame rate                  : 31.250 FPS (1536 SPF)
Bit depth                   : 16 bits
Compression mode            : Lossy
Stream size                 : 145 MiB (4%)
Title                       : Dub [ААА-sound, Megogo] 2.0 [stereo] 192 Kbps
Language                    : Ukrainian
Service kind                : Complete Main
Default                     : Yes
Forced                      : Yes

Audio #2
ID                          : 3
Format                      : AC-3
Format/Info                 : Audio Coding 3
Codec ID                    : A_AC3
Duration                    : 1 h 45 min
Bit rate mode               : Constant
Bit rate                    : 640 kb/s
Channel(s)                  : 6 channels
Channel positions           : Front: L C R, Side: L R, LFE
Sampling rate               : 48.0 kHz
Frame rate                  : 31.250 FPS (1536 SPF)
Bit depth                   : 16 bits
Compression mode            : Lossy
Stream size                 : 485 MiB (12%)
Title                       : Original, 5.1 640 Kbps
Language                    : English
Service kind                : Complete Main
Default                     : No
Forced                      : No

Text #1
ID                          : 4
Format                      : UTF-8
Codec ID                    : S_TEXT/UTF8
Codec ID/Info               : UTF-8 Plain Text
Duration                    : 1 h 32 min
Bit rate                    : 0 b/s
Count of elements           : 6
Stream size                 : 302 Bytes (0%)
Title                       : Ukr forced [Hurtom]
Language                    : Ukrainian
Default                     : Yes
Forced                      : Yes

Text #2
ID                          : 5
Format                      : UTF-8
Codec ID                    : S_TEXT/UTF8
Codec ID/Info               : UTF-8 Plain Text
Duration                    : 1 h 34 min
Bit rate                    : 46 b/s
Count of elements           : 878
Stream size                 : 32.1 KiB (0%)
Title                       : Eng Full
Language                    : English
Default                     : No
Forced                      : No

Menu
00:00:00.000                : en:Chapter 1
00:00:49.500                : en:Chapter 2
00:08:55.291                : en:Chapter 3
00:18:57.291                : en:Chapter 4
00:25:43.458                : en:Chapter 5
00:34:06.291                : en:Chapter 6
00:45:40.208                : en:Chapter 7
00:51:21.666                : en:Chapter 8
00:59:01.416                : en:Chapter 9
01:08:51.208                : en:Chapter 10
01:15:51.875                : en:Chapter 11
01:25:10.750                : en:Chapter 12
01:36:09.875                : en:Chapter 13

Код:
[info]: frame I:1442  Avg QP:12.12  size: 91151
[info]: frame P:33660 Avg QP:13.64  size: 41697
[info]: frame B:117465 Avg QP:14.46  size: 18278
[info]: consecutive B-frames:  2.2%  2.2%  9.6% 23.6% 16.8% 35.0%  4.8%  3.0%  2.8%



Оригінал <----------> Ріп






Джерело: & &
Синхронізація - Electroz, українські форсовані субтитри - igor911.

10.02.2018 оновлено відеоряд до 'а, додано українські форсовані та англійські субтитри.
30.03.2018 Українську доріжку замінено з моно на ліцензійну стерео, замінено відеоряд на оптимальний.


 Трекер:    Зареєстрований   

Завантажити / скачати фільм українською



відео для новачків



 Зареєстрований:   2018-03-30 19:15
 Розмір:   4.05 GB 
 Оцінка фільму:   8.8/10 (Голосів: 36)
   
Інші релізи
   Шибайголови / Renegades (2017) 1080p Ukr/Eng | Sub Eng 11FrYkT  3 / 0   9.77 GB   2018-03-31 14:43 
   Шибайголови / Renegades (2017) Remux 1080p Ukr/Eng | Sub Eng staf777  2 / 0   26.5 GB   2018-03-31 14:37 
   Шибайголови / Renegades (2017) AVC Ukr/Eng | Sub Eng 11FrYkT  6 / 0   1.73 GB   2018-03-30 20:40 
   Шибайголови / Renegades (2017) Ukr/Eng uafilm.tv  0 / 0   1.46 GB   2018-03-24 13:37 
   Шибайголови / Renegades (2017) Covenant  7 / 0   1.54 GB   2018-01-07 13:08 
Victor_Scythian 
Забанено
Забанено


З нами з: 06.01.17
Востаннє: 22.10.19
Повідомлень: 287

2018-01-08 04:04  
Дивитися виключно, як комедія. Бо бойовик - так собі. Особливо кумедно виглядає стрілянина по танку з автоматів та кулеметів. Ще якось не правдоподібно виглядає,
коли військові віддають власні 3.880$ дівчині, яка вже має 150.000.000$

casper101 
VIP


З нами з: 03.12.09
Востаннє: 12.11.19
Повідомлень: 432

2018-01-08 14:58  
відступники
Anonymous 







2018-02-10 01:00  
Реліз оновлено - заміна відеоряду з на , додано українські форсовані та англійські субтитри.
jaral 
Відео Гуртом - підтримка та поширення
Відео Гуртом - підтримка та поширення


З нами з: 18.10.07
Востаннє: 13.11.19
Повідомлень: 885

2018-02-10 01:58  
Victor_Scythian написано:
кумедно виглядає стрілянина по танку з автоматів та кулеметів.

В Україні добровольці з ножами на російські танки йшли, бо техніку горе командири позакривали на складах.

Anonymous 







2018-02-10 10:42  
jaral написано:
з ножами на російські танки йшли

та шо вже там ножами - зубами гризли Happy))
Цитата:
я танки гриз як барбарис

mutomba 
VIP


З нами з: 20.10.13
Востаннє: 10.11.19
Повідомлень: 344

2018-02-10 12:04  
ну таке собі прикольне кіно, на один раз глянути Happy
Anonymous 







2018-03-30 19:19  
30.03.2018 Українську доріжку замінено з моно на ліцензійну стерео
замінено відеоряд на оптимальний.


Додано через 2 хвилини 9 секунд:

"золото" на тиждень для заохочення підтримки реліза.

waldi-hurtom 
VIP


З нами з: 07.10.12
Востаннє: 13.11.19
Повідомлень: 1038

2018-04-02 20:51  
Рівень Сігала та Адольфа Лунгрема. Ода дебілізму. В 1944 році вивозити скарби з Парижу до Югославії, нацикі геть подуріли, чи що?????? Жодного нормального фільма про війну в Югославії не бачив. Додивитись до кінця не зміг - заканудило. 3 з 10.
Ваш часовий пояс: GMT + 2 Години

Нова тема   Відповісти