Різдвяна історія / A Christmas Carol (2009) Remux 1080p Ukr/Eng | Sub Eng

Нові коментарі

Нова тема   Відповісти
Автор Повідомлення
Argentum 
Поважний учасник


З нами з: 25.09.11
Востаннє: 28.02.20
Повідомлень: 239

2018-01-06 16:10  
Різдвяна історія / A Christmas Carol (2009) Remux 1080p Ukr/Eng | Sub Eng

Різдвяна історія / A Christmas Carol (2009) Remux 1080p Ukr/Eng | Sub Eng


Жанр: анімація, сімейний, драма, фентезі
Країна: США



Кінокомпанія: Walt Disney Pictures
Режисер: Роберт Земекіс
Актори: Джим Керрі, Кері Елвіс, Колін Ферт, Боб Хоскінс, Ґері Олдмен та інші.

Сюжет:
Це вікторіанська повчальна історія про старого жорстокого скупердяя Ебенезера Скруджа, який протягом однієї ночі переживає випробування глибокого очищення. Містер Скрудж - фінансит/грошовий міняла, який присвятив все своє життя накопиченню багатства. Він зневажає все, окрім грошей, включаючи дружбу, любов і різдвяні свята.



Тривалість: 01:35:49
Якість: Remux
Відео:
кодек:
розмір кадру: 1920 х 1080
бітрейт: 23.9 Мб/с

Аудіо # 1:
мова: українська
переклад: професійний дубльований
кодек: 5.1
бітрейт: 640 кб/с

Аудіо # 2:
мова: англійська
переклад: оригінал
кодек: 5.1
бітрейт: 1536 кб/с

Субтитри 1-2: (форсовані, повні)
мова: українська
тип: пререндерні
формат: *.pgs

Субтитри 3:
мова: англійська
тип: пререндерні
формат: *.pgs
Info
General
Unique ID : 151250337720493223726401731363610746985 (0x71C9C1654449E470318BF9E3671EE069)
Complete name : A Christmas Carol/A Christmas Carol (2009) [Ukr, Eng] Remux 1080p [Hurtom].
Format :
Format version : Version 4 / Version 2
File size : 17.5 GiB
Duration : 1 h 35 min
Overall bit rate mode : Variable
Overall bit rate : 26.1 Mb/s
Movie name : Release for HURTOM.COM
Encoded date : UTC 2017-11-29 12:57:47
Writing application : v18.0.0 ('Apricity') 64-bit
Writing library : libebml v1.3.5 + v1.4.8
Attachments : 1010290059337983_f0_0.jpg

Video
ID : 1
Format : AVC
Format/Info : Advanced Video Codec
Format profile : [email protected]
Format settings : CABAC / 4 Ref Frames
Format settings, CABAC : Yes
Format settings, ReFrames : 4 frames
Codec ID : V_MPEG4/ISO/AVC
Duration : 1 h 35 min
Bit rate mode : Variable
Bit rate : 23.9 Mb/s
Maximum bit rate : 28.0 Mb/s
Width : 1 920 pixels
Height : 1 080 pixels
Display aspect ratio : 16:9
Frame rate mode : Constant
Frame rate : 23.976 (24000/1001) FPS
Color space : YUV
Chroma subsampling : 4:2:0
Bit depth : 8 bits
Scan type : Progressive
Bits/(Pixel*Frame) : 0.481
Stream size : 16.0 GiB (92%)
Title : AVC @ 23.9 Mbps
Language : English
Default : Yes
Forced : Yes
Color range : Limited
Color primaries : BT.709
Transfer characteristics : BT.709
Matrix coefficients : BT.709

Audio #1
ID : 2
Format : AC-3
Format/Info : Audio Coding 3
Codec ID : A_AC3
Duration : 1 h 35 min
Bit rate mode : Constant
Bit rate : 640 kb/s
Channel(s) : 6 channels
Channel positions : Front: L C R, Side: L R, LFE
Sampling rate : 48.0 kHz
Frame rate : 31.250 FPS (1536 SPF)
Bit depth : 16 bits
Compression mode : Lossy
Stream size : 439 MiB (2%)
Title : 5.1 @ 640 Kbps
Language : Ukrainian
Service kind : Complete Main
Default : Yes
Forced : Yes

Audio #2
ID : 3
Format :
Format/Info : Digital Theater Systems
Codec ID : A_DTS
Duration : 1 h 35 min
Bit rate mode : Constant
Bit rate : 1 509 kb/s
Channel(s) : 6 channels
Channel positions : Front: L C R, Side: L R, LFE
Sampling rate : 48.0 kHz
Frame rate : 93.750 FPS (512 SPF)
Bit depth : 24 bits
Compression mode : Lossy
Stream size : 1.01 GiB (6%)
Title : 5.1 @ 1536 Kbps
Language : English
Default : No
Forced : No

Text #1
ID : 4
Format : PGS
Codec ID : S_HDMV/PGS
Codec ID/Info : Picture based subtitle format used on BDs/HD-DVDs
Duration : 1 h 29 min
Bit rate : 442 b/s
Count of elements : 36
Stream size : 288 KiB (0%)
Title : Forced
Language : Ukrainian
Default : Yes
Forced : Yes

Text #2
ID : 5
Format : PGS
Codec ID : S_HDMV/PGS
Codec ID/Info : Picture based subtitle format used on BDs/HD-DVDs
Duration : 1 h 28 min
Bit rate : 20.7 kb/s
Count of elements : 1480
Stream size : 13.1 MiB (0%)
Title : Full
Language : Ukrainian
Default : No
Forced : No

Text #3
ID : 6
Format : PGS
Codec ID : S_HDMV/PGS
Codec ID/Info : Picture based subtitle format used on BDs/HD-DVDs
Duration : 1 h 29 min
Bit rate : 30.4 kb/s
Count of elements : 1968
Stream size : 19.5 MiB (0%)
Title : SDH
Language : English
Default : No
Forced : No
Скріншоти






Джерело: &
Особиста оцінка: 8 - мені сподобалося


Золотий реліз (завантажене не впливає на рейтинг)
 Трекер:    Зареєстрований   

Завантажити / скачати мультфільм українською



відео для новачків



 Зареєстрований:   2018-01-06 16:10
 Розмір:   17.48 GB 
 Оцінка мультфільму:   9.7/10 (Голосів: 28)
   
-_-B_E_N_D_E_R-_- 
Забанено
Забанено


З нами з: 09.01.14
Востаннє: 22.05.18
Повідомлень: 896

2018-01-06 17:56  
Ти видалив другу відео доріжку? тут без спецефектів.
Argentum 
Поважний учасник


З нами з: 25.09.11
Востаннє: 28.02.20
Повідомлень: 239

2018-01-06 18:08  
-_-B_E_N_D_E_R-_- написано:
Ти видалив другу відео доріжку? тут без спецефектів.

Її здається взагалі не було в моєму джерелі. Відверто кажучи, точно не пам'ятаю бо десь з місяць тому готував файл

sergeyzzz 
Новенький


З нами з: 09.02.17
Востаннє: 24.02.20
Повідомлень: 12

2018-03-14 19:04  
-_-B_E_N_D_E_R-_- написано:
тут без спецефектів.


Так це можно дивитись? Че без спецефектів зовсім, як це?

-_-В_E_N_D_E_R-_- 
Забанено
Забанено


З нами з: 22.04.18
Востаннє: 24.06.18
Повідомлень: 187

2018-04-22 23:36  
sergeyzzz
Колись у мене був ремукс де було два відео, одне це самий мульт, а друге без спецефектів де було багато людей в чорних костюмах і в крапочку.

bodya_topol 
Новенький


З нами з: 31.12.18
Востаннє: 27.02.20
Повідомлень: 4

2019-11-02 14:20  
Доьрого дня. Станьте хтось на роздачу будь-ласка!)
Ваш часовий пояс: GMT + 2 Години

Нова тема   Відповісти