Захоплення в північному морі / North Sea Hijack (1979) 720p Ukr/Eng | Sub Eng

Нові коментарі

Нова тема   Відповісти
Автор Повідомлення
staf777 
Попереджень: 1
Попереджень: 1 


З нами з: 16.11.16
Востаннє: 19.10.18
Повідомлень: 1637

2018-01-05 23:09  
Захоплення в північному морі / North Sea Hijack (1979) 720p Ukr/Eng | Sub Eng

Захоплення в північному морі / North Sea Hijack (1979) 720p Ukr/Eng | Sub Eng


Жанр: екшн, пригодницький, трилер
Країна: Велика Британія



Кінокомпанія: Cinema Seven Productions Ltd., Universal Pictures
Режисер: Ендрю МакЛаґлен
Актори: Роджер Мур, Джеймс Мейсон, Ентоні Перкінс, Майкл Паркс, Девід Гедісон, Джек Ватсон, Джордж Бейкер

Сюжет:
Безжалісний терорист Креймр захопив контроль над гігантською буровою установкою і тримає у заручниках сімсот працівників...


Тривалість: 01:39:33
Якість: 720p
Відео:
кодек:
розмір кадру: 1280x688
бітрейт: 5650 кб/с

Аудіо # 1:
мова: українська
переклад: багатоголосий закадровий
кодек: 2.0
бітрейт: 192 кб/с

Аудіо # 2:
мова: англійська
переклад: оригінал
кодек: 2.0
бітрейт: 320 кб/с

Субтитри:
мова: англійська
тип: програмні (м'які)
формат: *.srt
Скріншоти




MI
General
Unique ID : 212283456106617373649592232340907102100 (0x9FB44E75903985C480298F6EF4E80F94)
Complete name : H:\» HD українською » Фільми в HD\Бойовик\North Sea Hijack (1979) 720p [Ukr][Eng] [Sub Eng][Hurtom].
Format :
Format version : Version 4 / Version 2
File size : 4.29 GiB
Duration : 1 h 39 min
Overall bit rate : 6 164 kb/s
Movie name : North Sea Hijack (1979) 720p Ukr/Eng | Sub Eng[Hurtom]
Encoded date : UTC 2018-01-13 08:03:25 / UTC 2017-09-29T11:17:40Z
Writing application : v9.8.0 ('Kuglblids') 64bit
Writing library : libebml v1.3.4 + v1.4.5 / Lavf57.7.2

Video
ID : 1
Format : AVC
Format/Info : Advanced Video Codec
Format profile : [email protected]
Format settings, CABAC : Yes
Format settings, ReFrames : 8 frames
Codec ID : V_MPEG4/ISO/AVC
Duration : 1 h 39 min
Bit rate : 5 650 kb/s
Width : 1 280 pixels
Height : 688 pixels
Display aspect ratio : 1.85:1
Frame rate mode : Constant
Frame rate : 23.976 (24000/1001) FPS
Color space : YUV
Chroma subsampling : 4:2:0
Bit depth : 8 bits
Scan type : Progressive
Bits/(Pixel*Frame) : 0.268
Stream size : 3.84 GiB (90%)
Title : North Sea Hijack (1979)
Writing library : core 148 r2708 86b7198
Encoding settings : cabac=1 / ref=8 / deblock=1:-3:-3 / analyse=0x3:0x113 / me=umh / subme=11 / psy=1 / psy_rd=1.00:0.00 / mixed_ref=1 / me_range=32 / chroma_me=1 / trellis=2 / 8x8dct=1 / cqm=0 / deadzone=21,11 / fast_pskip=1 / chroma_qp_offset=-2 / threads=12 / lookahead_threads=1 / sliced_threads=0 / nr=0 / decimate=0 / interlaced=0 / bluray_compat=0 / constrained_intra=0 / bframes=12 / b_pyramid=2 / b_adapt=1 / b_bias=0 / direct=1 / weightb=1 / open_gop=0 / weightp=2 / keyint=240 / keyint_min=24 / scenecut=40 / intra_refresh=0 / rc_lookahead=40 / rc=2pass / mbtree=1 / bitrate=5650 / ratetol=1.0 / qcomp=0.60 / qpmin=0 / qpmax=69 / qpstep=4 / cplxblur=20.0 / qblur=0.5 / vbv_maxrate=62500 / vbv_bufsize=78125 / nal_hrd=none / filler=0 / ip_ratio=1.40 / aq=1:1.00
Default : Yes
Forced : No
Color range : Limited
Color primaries : BT.709
Transfer characteristics : BT.709
Matrix coefficients : BT.709
Statistics Tags Issue : v9.8.0 ('Kuglblids') 64bit 2018-01-13 08:03:25 / v9.8.0 ('Kuglblids') 64bit 2018-01-13 08:03:25 / UTC 2017-09-29T11:17:40Z
FromStats_BitRate : 5649963
FromStats_Duration : 01:39:33.051000000
FromStats_FrameCount : 143210
FromStats_StreamSize : 4218439878

Audio #1
ID : 2
Format : AC-3
Format/Info : Audio Coding 3
Mode extension : CM (complete main)
Format settings, Endianness : Big
Codec ID : A_AC3
Duration : 1 h 39 min
Bit rate mode : Constant
Bit rate : 192 kb/s
Channel(s) : 2 channels
Channel positions : Front: L R
Sampling rate : 48.0 kHz
Frame rate : 31.250 FPS (1536 spf)
Bit depth : 16 bits
Compression mode : Lossy
Stream size : 137 MiB (3%)
Title : UA-MVO, НЛО-TV
Language : Ukrainian
Default : Yes
Forced : Yes
Statistics Tags Issue : v9.8.0 ('Kuglblids') 64bit 2018-01-13 08:03:25 / v9.8.0 ('Kuglblids') 64bit 2018-01-13 08:03:25 / UTC 2017-09-29T11:17:40Z
FromStats_BitRate : 192000
FromStats_Duration : 01:39:33.088000000
FromStats_FrameCount : 186659
FromStats_StreamSize : 143354112

Audio #2
ID : 3
Format : AC-3
Format/Info : Audio Coding 3
Format profile : Dolby Digital
Mode extension : CM (complete main)
Format settings, Endianness : Big
Codec ID : A_AC3
Duration : 1 h 39 min
Bit rate mode : Constant
Bit rate : 320 kb/s
Channel(s) : 2 channels
Channel positions : Front: L R
Sampling rate : 48.0 kHz
Frame rate : 31.250 FPS (1536 spf)
Bit depth : 16 bits
Compression mode : Lossy
Delay relative to video : -5 ms
Stream size : 228 MiB (5%)
Title : [Original]
Language : English
Default : No
Forced : No
Statistics Tags Issue : v9.8.0 ('Kuglblids') 64bit 2018-01-13 08:03:25 / v9.8.0 ('Kuglblids') 64bit 2018-01-13 08:03:25 / UTC 2017-09-29T11:17:40Z
FromStats_BitRate : 320000
FromStats_Duration : 01:39:33.024000000
FromStats_FrameCount : 186657
FromStats_StreamSize : 238920960

Text
ID : 4
Format : UTF-8
Codec ID : S_TEXT/UTF8
Codec ID/Info : UTF-8 Plain Text
Language : English
Default : No
Forced : No
Statistics Tags Issue : v9.8.0 ('Kuglblids') 64bit 2018-01-13 08:03:25 / v9.8.0 ('Kuglblids') 64bit 2018-01-13 08:03:25 / UTC 2017-09-29T11:17:40Z
FromStats_BitRate : 53
FromStats_Duration : 01:37:07.243000000
FromStats_FrameCount : 877
FromStats_StreamSize : 39031

Menu
00:00:00.000 : :Chapter 1
00:10:52.485 : :Chapter 2
00:24:04.234 : :Chapter 3
00:37:05.807 : :Chapter 4
00:48:51.595 : :Chapter 5
01:01:17.048 : :Chapter 6
01:11:31.871 : :Chapter 7
01:22:07.881 : :Chapter 8

Джерело: &
За доріжку дякую Sando7, voin747, Silverok, patriot2305
Особиста оцінка: не дивився


Срібний реліз (на рейтинг впливає 50% завантаженого)
 Трекер:    Зареєстрований   

Завантажити / скачати фільм українською



відео для новачків



 Зареєстрований:   2018-01-13 11:33
 Розмір:   4.29 GB 
 Оцінка фільму:   5.5/10 (Голосів: 4)
   
Ваш часовий пояс: GMT + 2 Години

Нова тема   Відповісти