Ультиматум Борна / The Bourne Ultimatum (2007) AVC 2xUkr | Sub Eng

Нові коментарі

Нова тема   Відповісти
Автор Повідомлення
Maters 
VIP


З нами з: 27.03.12
Востаннє: 19.04.19
Повідомлень: 1628

2018-01-04 00:55  
Ультиматум Борна / The Bourne Ultimatum (2007) AVC 2xUkr | Sub Eng

Ультиматум Борна / The Bourne Ultimatum (2007) AVC 2xUkr | Sub Eng


Жанр: бойовик, трилер, пригодницький, екшн
Країна: США



Кінокомпанія: Universal Studios, The Kennedy/Marshall Company, Ludlum Entertainment
Режисер: Пол Грінграс
Актори: Метт Деймон, Джулія Стайлз, Девід Стретейрн, Скотт Глен, Педді Консідін, Едгар Рамірез, Джоан Аллен та інші

Сюжет:
Він хотів одного — зникнути. Натомість за Борном тепер полюють люди, які зробили його таким, який він є. Він втратив пам'ять і кохану людину, але його не вдається втримати навіть новому поколінню професійних вбивць. У нього тільки одна мета: повернутися до початку й дізнатися ким він був, Джейсон Борн. Він ганяє від Москви до Парижа, через Мадрид і Лондон, в Танжер і Нью-Йорк, намагаючись розкрити останні загадки свого минулого, тоді як урядові агенти й Інтерпол намагаються перешкодити йому відновити всю картину до кінця.


Тривалість: 01:55:19
Якість:
Відео:
кодек: AVC
розмір кадру: 1024 х 426
бітрейт: 1960 кб/с

Аудіо # 1:
мова: українська
переклад: багатоголосий закадровий
кодек: 2.0
бітрейт: 160 кб/с

Аудіо # 2:
мова: українська
переклад: професійний дубльований
кодек: 2.0
бітрейт: 160 кб/с

Субтитри:
мова: англійська
тип: програмні (м'які)
формат: *.srt
Скріншоти



Info

General
Complete name : I:\Serial films\Борн\The Bourne Ultimatum (2007) [2xUkr] AVC.mp4
Format : MPEG-4
Format profile : Base Media / Version 2
Codec ID : mp42
File size : 1.84 GiB
Duration : 1h 55mn
Overall bit rate mode : Variable
Overall bit rate : 2 288 Kbps
Movie name : The Bourne Ultimatum (2007)
Encoded date : UTC 2018-01-03 04:17:46
Tagged date : UTC 2018-01-03 04:17:46
Writing application : HandBrake 1.0.7 2017040900

Video
ID : 1
Format : AVC
Format/Info : Advanced Video Codec
Format profile : [email protected]
Format settings, CABAC : Yes
Format settings, ReFrames : 5 frames
Codec ID : avc1
Codec ID/Info : Advanced Video Coding
Duration : 1h 55mn
Bit rate : 1 960 Kbps
Width : 1 024 pixels
Height : 426 pixels
Display aspect ratio : 2.40:1
Frame rate mode : Variable
Frame rate : 23.976 fps
Minimum frame rate : 23.974 fps
Maximum frame rate : 23.981 fps
Color space : YUV
Chroma subsampling : 4:2:0
Bit depth : 8 bits
Scan type : Progressive
Bits/(Pixel*Frame) : 0.187
Stream size : 1.58 GiB (86%)
Writing library : core 148 r2708 86b7198
Encoding settings : cabac=1 / ref=5 / deblock=1:-1:-1 / analyse=0x3:0x113 / me=umh / subme=8 / psy=1 / psy_rd=1.00:0.15 / mixed_ref=1 / me_range=16 / chroma_me=1 / trellis=1 / 8x8dct=1 / cqm=0 / deadzone=21,11 / fast_pskip=1 / chroma_qp_offset=-3 / threads=3 / lookahead_threads=1 / sliced_threads=0 / nr=0 / decimate=1 / interlaced=0 / bluray_compat=0 / constrained_intra=0 / bframes=3 / b_pyramid=2 / b_adapt=2 / b_bias=0 / direct=3 / weightb=1 / open_gop=0 / weightp=2 / keyint=240 / keyint_min=24 / scenecut=40 / intra_refresh=0 / rc_lookahead=50 / rc=2pass / mbtree=1 / bitrate=1960 / ratetol=1.0 / qcomp=0.60 / qpmin=0 / qpmax=69 / qpstep=4 / cplxblur=20.0 / qblur=0.5 / vbv_maxrate=62500 / vbv_bufsize=78125 / nal_hrd=none / filler=0 / ip_ratio=1.40 / aq=1:1.00
Encoded date : UTC 2018-01-03 04:17:46
Tagged date : UTC 2018-01-03 04:17:46
Color primaries : BT.709-5, BT.1361, IEC 61966-2-4, SMPTE RP177
Transfer characteristics : BT.709-5, BT.1361
Matrix coefficients : BT.709-5, BT.1361, IEC 61966-2-4 709, SMPTE RP177

Audio #1
ID : 2
Format :
Format/Info : Advanced Audio Codec
Format profile : LC
Codec ID : 40
Duration : 1h 55mn
Bit rate mode : Variable
Bit rate : 160 Kbps
Channel(s) : 2 channels
Channel positions : Front: L R
Sampling rate : 48.0 KHz
Compression mode : Lossy
Stream size : 132 MiB (7%)
Title : Stereo
Language : Ukrainian
Encoded date : UTC 2018-01-03 04:17:46
Tagged date : UTC 2018-01-03 04:17:46

Audio #2
ID : 3
Format :
Format/Info : Advanced Audio Codec
Format profile : LC
Codec ID : 40
Duration : 1h 55mn
Bit rate mode : Variable
Bit rate : 160 Kbps
Channel(s) : 2 channels
Channel positions : Front: L R
Sampling rate : 48.0 KHz
Compression mode : Lossy
Stream size : 132 MiB (7%)
Title : Stereo
Language : Ukrainian
Encoded date : UTC 2018-01-03 04:17:46
Tagged date : UTC 2018-01-03 04:17:46

Text #1
ID : 4
Format : Timed text
Muxing mode : sbtl
Codec ID : tx3g
Duration : 1h 15mn
Bit rate mode : Variable
Bit rate : 1 bps
Stream size : 795 Bytes (0%)
Language : English
Encoded date : UTC 2018-01-03 04:17:46
Tagged date : UTC 2018-01-03 04:17:46

Text #2
ID : 5
Format : Timed text
Muxing mode : sbtl
Codec ID : tx3g
Duration : 1h 45mn
Bit rate mode : Variable
Bit rate : 53 bps
Stream size : 41.0 KiB (0%)
Language : English
Encoded date : UTC 2018-01-03 04:17:46
Tagged date : UTC 2018-01-03 04:17:46
Джерело: &
Особиста оцінка: 10 - без зайвих вагань рекомендую всім!



 Трекер:    Зареєстрований   

Завантажити / скачати фільм українською



відео для новачків



 Зареєстрований:   2018-01-04 00:55
 Розмір:   1.84 GB 
 Оцінка фільму:   8.5/10 (Голосів: 8)
   
Electroz 
Відео Гуртом - підтримка та поширення
Відео Гуртом - підтримка та поширення


З нами з: 18.09.14
Востаннє: 19.04.19
Повідомлень: 3265

2018-01-04 01:25  
Maters
Нащо було звук перекодовувати?

Maters 
VIP


З нами з: 27.03.12
Востаннє: 19.04.19
Повідомлень: 1628

2018-01-04 01:35  
Electroz
Я не надто досвідчений "ріпер", робив за стандартною схемою по якій кодував попередні фільми. Та й мабуть очікував, що від цього трохи зменшиться розмір кінцевого файлу. Чи це не так?

EvGaS 
Попереджень: 1
Попереджень: 1 


З нами з: 27.02.12
Востаннє: 19.04.19
Повідомлень: 5641

2018-01-04 09:17  
Maters
менше 192 кб/с 48 КГц звук не варто утискати, починається різкий обвал у суб'єктивній на слух якості
(намагання запхнути невхаване)

Мабуть краще перероби та перевиклади, поки багато не навантажило.
Якщо звук був до 256-320 кб/с, то й взагалі краще його не псувати перекодуваннями, а додати до відео. Хто рахуватиме ті кількадесят мегабайт. (другу цифру опісля крапки у вазі релізу 1.84 ГБ)

11FrYkT 
Модератор відео


З нами з: 20.02.11
Востаннє: 19.04.19
Повідомлень: 5793

2018-01-04 16:15  
Maters , а ще краще його взагалі не перекодовувати, різниця в 269 МБ
Nickolassssssss 
Частий відвідувач


З нами з: 31.05.14
Востаннє: 19.04.19
Повідомлень: 30

2018-01-04 17:11  
Авторе, може ви все ж повернетесь на роздачу, щоб можна було довантажити фільм?
Maters 
VIP


З нами з: 27.03.12
Востаннє: 19.04.19
Повідомлень: 1628

2018-01-04 19:02  
11FrYkT
Не зрозумів. То цей реліз залишається чи в смітник?
Переробляти поки що не маю змоги

mixafree 
Новенький


З нами з: 26.11.15
Востаннє: 17.04.19
Повідомлень: 9

2018-04-09 19:19  
Станьте хтось на роздачу, будь ласка...
Ваш часовий пояс: GMT + 2 Години

Нова тема   Відповісти