Пірати Карибського моря: Помста Салазара [повноекранна версія] / Pirates of the Caribbean: Dead Men Tell No Tales [Open Matte] (2017) 1080p Ukr/Eng | Sub Eng

Нові коментарі

Нова тема   Відповісти
Автор Повідомлення
omm 
Відео Гуртом - фільмокрай
Відео Гуртом - фільмокрай


З нами з: 12.06.12
Востаннє: 19.09.20
Повідомлень: 2422

2018-01-03 19:33  
Пірати Карибського моря: Помста Салазара [повноекранна версія] / Pirates of the Caribbean: Dead Men Tell No Tales [Open Matte] (2017) 1080p Ukr/Eng | Sub Eng

Пірати Карибського моря: Помста Салазара [повноекранна версія] / Pirates of the Caribbean: Dead Men Tell No Tales [Open Matte] (2017) 1080p Ukr/Eng | Sub Eng


Жанр: фентезі, екшн, комедія, пригодницький
Країна: США



Кінокомпанія: Walt Disney Pictures, Jerry Bruckheimer Films, Infinitum Nihil
Режисер: Хоакім Роннінґ / Joachim Rønning, Еспен Сандберґ / Espen Sandberg
Актори: Джонні Деп / Johnny Depp, Хав’єр Бардем / Javier Bardem, Джеффрі Раш / Geoffrey Rush, Брентон Туейтс / Brenton Thwaites, Кая Скоделаріо / Kaya Scodelario, Орландо Блум / Orlando Bloom, Кіра Найтлі / Keira Knightley, Стівен Ґрем / Stephen Graham, Девід Венем / David Wenham, Кевін МакНеллі / Kevin McNally, Пол МакКартні / Paul McCartney та інші

Сюжет:
Щасливчик капітан Джек Спарроу переживає важкі часи, адже удача його покинула. Колись дуже давно в молодості Джек знищив лютого іспанського борця з піратами капітана Салазара. Цей страшний капітан утік разом зі своєю командою з Диявольського трикутника, щоб знищити всіх піратів, особливо Джека. Єдиний шанс Джека вижити – знайти легендарний тризуб Посейдона. Цей неймовірно сильний артефакт дозволить своєму господареві бути володарем усіх морів. І допоможуть у цьому капітану Джеку Спарроу його нові друзі – Генрі й Каріна Сміт. Неймовірні пригоди Джека Спарроу тривають!

Тривалість: 02:09:07
Якість: 1080p [Open Matte] (BLUEBIRD) (російський відеоряд)
Відео:
кодек:
розмір кадру: 1920 х 1080
бітрейт: 14,7 мб/с

Аудіо # 1:
мова: українська
переклад: професійний дубльований
кодек: 5.1
бітрейт: 1536 кб/с

Аудіо # 2:
мова: українська
переклад: професійний дубльований
кодек: 5.1
бітрейт: 384 кб/с

Аудіо # 3:
мова: англійська
переклад: оригінал
кодек: 5.1
бітрейт: 1536 кб/с

Субтитри:
мова: російська (форсовані)
тип: вбудовані (жорсткі)

Субтитри # 1-3:
мова: українська (форсовані), англійська (звичайні, SDH)
тип: програмні (м'які)
формат: *.srt
Info
C:\Users\тарас\Downloads\Pirates.of.the.Caribbean.Dead.Men.Tell.No.Tales.2017.Hybrid.1080p.OpenMatte.Rus.Ukr.Eng (1).
General
Complete name : C:\Users\тарас\Downloads\Pirates.of.the.Caribbean.Dead.Men.Tell.No.Tales.2017.Hybrid.1080p.OpenMatte.Rus.Ukr.Eng (1).
Format :
File size : 16.6 GiB
Duration : 2h 9mn
Overall bit rate : 18.5 Mbps
Movie name : Пираты Карибского моря: Мертвецы не рассказывают сказки / Pirates of the Caribbean: Dead Men Tell No Tales (2017) BluRay 1080p
Encoded date : UTC 2018-01-03 16:04:26
Writing application : v19.0.0 ('Brave Captain') 64-bit
Writing library : libebml v1.3.5 + v1.4.8
Cover : Cover
Video #1
ID : 1
Format : AVC
Format/Info : Advanced Video Codec
Format profile : [email protected]
Format settings, CABAC : Yes
Format settings, ReFrames : 4 frames
Muxing mode : Container [email protected]
Codec ID : V_MPEG4/ISO/AVC
Duration : 2h 9mn
Bit rate : 14.7 Mbps
Width : 1 920 pixels
Height : 1 080 pixels
Display aspect ratio : 16:9
Frame rate mode : Variable
Frame rate : 23.976 fps
Resolution : 8 bits
Colorimetry : 4:2:0
Scan type : Progressive
Bits/(Pixel*Frame) : 0.295
Stream size : 13.2 GiB (80%)
Writing library : core 148 r2762 90a61ec
Encoding settings : cabac=1 / ref=4 / deblock=1:-3:-3 / analyse=0x3:0x113 / me=umh / subme=10 / psy=1 / psy_rd=1.00:0.00 / mixed_ref=1 / me_range=24 / chroma_me=1 / trellis=2 / 8x8dct=1 / cqm=0 / deadzone=21,11 / fast_pskip=0 / chroma_qp_offset=-2 / threads=6 / lookahead_threads=1 / sliced_threads=0 / nr=0 / decimate=0 / interlaced=0 / bluray_compat=0 / constrained_intra=0 / bframes=8 / b_pyramid=2 / b_adapt=2 / b_bias=0 / direct=3 / weightb=1 / open_gop=0 / weightp=2 / keyint=250 / keyint_min=25 / scenecut=40 / intra_refresh=0 / rc_lookahead=60 / rc=crf / mbtree=0 / crf=18.5 / qcomp=0.65 / qpmin=0 / qpmax=69 / qpstep=4 / vbv_maxrate=50000 / vbv_bufsize=62500 / crf_max=0.0 / nal_hrd=none / filler=0 / ip_ratio=1.40 / pb_ratio=1.30 / aq=3:1.00
Audio #2
ID : 2
Format :
Format/Info : Digital Theater Systems
Codec ID : A_DTS
Duration : 2h 9mn
Bit rate mode : Constant
Bit rate : 1 510 Kbps
Channel(s) : 6 channels
Channel positions : Front: L C R, Side: L R, LFE
Sampling rate : 48.0 KHz
Resolution : 24 bits
Stream size : 1.36 GiB (8%)
Title : BD «Disney / Buena Vista»
Language : Ukrainian
Audio #3
ID : 3
Format : AC-3
Format/Info : Audio Coding 3
Format_Settings_ModeExtension : CM (complete main)
Codec ID : A_AC3
Duration : 2h 9mn
Bit rate mode : Constant
Bit rate : 384 Kbps
Channel(s) : 6 channels
Channel positions : Front: L C R, Side: L R, LFE
Sampling rate : 48.0 KHz
Stream size : 355 MiB (2%)
Audio #4
ID : 4
Format :
Format/Info : Digital Theater Systems
Codec ID : A_DTS
Duration : 2h 9mn
Bit rate mode : Constant
Bit rate : 1 510 Kbps
Channel(s) : 6 channels
Channel positions : Front: L C R, Side: L R, LFE
Sampling rate : 48.0 KHz
Resolution : 24 bits
Stream size : 1.36 GiB (8%)
Title : Original
Text #5
ID : 5
Format : UTF-8
Codec ID : S_TEXT/UTF8
Codec ID/Info : UTF-8 Plain Text
Title : Forced
Language : Ukrainian
Text #6
ID : 6
Format : UTF-8
Codec ID : S_TEXT/UTF8
Codec ID/Info : UTF-8 Plain Text
Title : Full
Text #7
ID : 7
Format : UTF-8
Codec ID : S_TEXT/UTF8
Codec ID/Info : UTF-8 Plain Text
Title : SDH

Подяка пану Hanway за створення української доріжки 5.1
Джерело:


 Трекер:    Зареєстрований   

Завантажити / скачати фільм українською



відео для новачків



 Зареєстрований:   2018-01-03 19:33
 Розмір:   16.64 GB 
 Оцінка фільму:   8.7/10 (Голосів: 16)
   
Інші релізи
   Пірати Карибського моря: Помста Салазара [Повноекранна Версія] / Pirates of the Caribbean: Dead Men Tell No Tales [Open Matte] (2017) AVC Ukr/Eng | Sub Eng leicheman  3 / 0   3.44 GB   2018-03-04 17:19 
   Пірати Карибського моря: Помста Салазара / Pirates of the Caribbean: Dead Men Tell No Tales (2017) igor911  2 / 0   2.18 GB   2017-10-15 12:27 
   Пірати Карибського моря: Помста Салазара / Pirates of the Caribbean: Dead Men Tell No Tales (2017) 1080p 3D [Half OverUnder] Ukr/Eng | Sub Eng Yarik73  6 / 0   13.78 GB   2017-09-23 00:28 
   Пірати Карибського моря: Помста Салазара / Pirates of the Caribbean: Dead Men Tell No Tales (2017) 720p-mini (60fps) Ukr/Eng | Sub Eng Drool  6 / 0   6.8 GB   2017-09-19 12:51 
   Пірати Карибського моря: Помста Салазара / Pirates of the Caribbean: Dead Men Tell No Tales (2017) Covenant  5 / 0   1.45 GB   2017-09-18 19:03 
   Пірати Карибського моря: Помста Салазара / Pirates of the Caribbean: Dead Men Tell No Tales (2017) 1080p Ukr/Eng | Sub Eng igor911  6 / 0   12.89 GB   2017-09-16 12:00 
   Пірати Карибського моря: Помста Салазара / Pirates of the Caribbean: Dead Men Tell No Tales (2017) Remux 1080p Ukr/Eng | Sub Eng 11FrYkT  6 / 0   34.5 GB   2017-09-16 09:40 
[email protected] 
VIP


З нами з: 25.03.17
Востаннє: 20.09.20
Повідомлень: 551

2018-01-03 20:50  
Що справді краще зображення за ремукс?
omm 
Відео Гуртом - фільмокрай
Відео Гуртом - фільмокрай


З нами з: 12.06.12
Востаннє: 19.09.20
Повідомлень: 2422

2018-01-03 20:54  
serg[email protected]
повніший кадр по вертикалі - див.порівнняння скріншотів

zoomymba2012 
VIP


З нами з: 08.01.15
Востаннє: 19.09.20
Повідомлень: 686

2018-01-03 21:24  
omm
А відеоряд російский?

Skiff_1956 
Свій


З нами з: 14.09.14
Востаннє: 19.09.20
Повідомлень: 81

2018-01-03 21:40  
zoomymba2012 написано:
А відеоряд російский?


Якщо не російський, то зробіть ріп 720р десь на 3.5 Гіга, не більше. Був би дуже вдячний.

Там російські субтитри вшиті?

Skiff_1956 
Свій


З нами з: 14.09.14
Востаннє: 19.09.20
Повідомлень: 81

2018-01-04 16:43  
Skiff_1956 написано:
Там російські субтитри вшиті?


Так що є вони чи ні???

11FrYkT 
Модератор відео


З нами з: 20.02.11
Востаннє: 19.09.20
Повідомлень: 6991

2018-01-04 16:49  
omm написано:
Якість: 1080p [Open Matte] (BLUEBIRD) (російський відеоряд)

в темі пише
Skiff_1956 написано:
Так що є вони чи ні???

де Ви саби побачили?

Skiff_1956 
Свій


З нами з: 14.09.14
Востаннє: 19.09.20
Повідомлень: 81

2018-01-04 17:29  
зробіть ріп 720р (1280*720) десь на 3.5 Гіга, в Open Matte перших трьох частин і цієї, був би дуже вдячний...
leicheman 
Відео Гуртом - фільмокрай
Відео Гуртом - фільмокрай


З нами з: 03.07.14
Востаннє: 19.09.20
Повідомлень: 5409

2018-02-19 20:17  
11FrYkT написано:
де Ви саби побачили?

у релізі є вшиті московські субтитри.

igor911 
Модератор відео


З нами з: 18.01.08
Востаннє: 20.09.20
Повідомлень: 14994

2018-03-05 02:25  
leicheman написано:
у релізі є вшиті московські субтитри

omm, треба додати їх в опис і виділити червоним.

Ваш часовий пояс: GMT + 2 Години

Нова тема   Відповісти