Поїздка в Америку / Coming to America (1988) 1080p 2хUkr/Eng | Sub Eng

Нові коментарі

Нова тема   Відповісти
Автор Повідомлення
omm 
Відео Гуртом - фільмокрай
Відео Гуртом - фільмокрай


З нами з: 12.06.12
Востаннє: 24.01.20
Повідомлень: 2347

2018-01-03 16:35  
Поїздка в Америку / Coming to America (1988) 1080p 2хUkr/Eng | Sub Eng

Поїздка в Америку / Coming to America (1988) 1080p 2хUkr/Eng | Sub Eng
Оригінальна обкладина:


Жанр: комедія, мелодрама
Країна: США



Кінокомпанія: Paramount Pictures, Eddie Murphy Productions
Режисер: Джон Лендіс / John Landis
Актори: Едді Мерфі / Eddie Murphy, Шері Гедлі / Shari Headley, Арсеніо Гол / Arsenio Hall, Джеймс Ерл Джонс / James Earl Jones, Джон Еймос / John Amos, Медж Сінклейр / Madge Sinclair, Пол Бейтс / Paul Bates, Ерік Ла Саль / Eriq La Salle, Френкі Фейсон / Frankie Faison та інші

Сюжет:
Принц-спадкоємець африканської держави в компанії свого вірного друга хоче знайти собі дружину і їде для цього в Америку. У Штатах принц Акім видає себе за бідного. Заради своєї новоспеченої подружки Лізи МакДавел він влаштовується працювати у закусочну її батька. Дівчина і не підозрює, ким насправді є її скромний залицяльник.

Тривалість: 01:56:48
Якість: 1080p (daykom - Rutracker)
Відео:
кодек:
розмір кадру: 1920 х 1080
бітрейт: 12,3 мб/с

Аудіо # 1:
мова: українська
переклад: двоголосий закадровий
кодек: 2.0
бітрейт: 192 кб/с
Інформація про озвучення:
Переклад: Роман Дяченко
Літературний редактор: Оксана Батюк
Звукорежисер: Сергій Вачі
Режисер: Володимир Коваленко
Текст читали: Наталя Ярошенко і Євген Пашин
Аудіо # 2:
мова: українська
переклад: багатоголосий закадровий
кодек: 2.0
бітрейт: 192 кб/с
Інформація про озвучення:
Ролі озвучили: Дмитро Терещук, Євген Пашин, Володимир Терещук і один жіночий
Аудіо # 3:
мова: англійська
переклад: оригінал
кодек: 5.1
бітрейт: 448 кб/с

Субтитри:
мова: англійська
тип: програмні (м'які)
формат: *.srt
Info
C:\Users\òàðàñ\Downloads\1080p.Coming.To.America.1988.DKom.[.H264.AC3Rus.AC3Rus.AC3Rus.AC3Eng] (1) (1).
General
Complete name : C:\Users\òàðàñ\Downloads\1080p.Coming.To.America.1988.DKom.[.H264.AC3Rus.AC3Rus.AC3Rus.AC3Eng] (1) (1).
Format :
File size : 10.9 GiB
Duration : 1h 56mn
Overall bit rate : 13.4 Mbps
Movie name : -=Dkom=-
Encoded date : UTC 2018-01-03 14:22:46
Writing application : v19.0.0 ('Brave Captain') 64-bit
Writing library : libebml v1.3.5 + v1.4.8
Video #1
ID : 1
Format : AVC
Format/Info : Advanced Video Codec
Format profile : [email protected]
Format settings, CABAC : Yes
Format settings, ReFrames : 4 frames
Muxing mode : Container [email protected]
Codec ID : V_MPEG4/ISO/AVC
Duration : 1h 56mn
Bit rate : 12.3 Mbps
Nominal bit rate : 12.1 Mbps
Width : 1 920 pixels
Height : 1 080 pixels
Display aspect ratio : 16:9
Frame rate : 23.976 fps
Resolution : 8 bits
Colorimetry : 4:2:0
Scan type : Progressive
Bits/(Pixel*Frame) : 0.248
Stream size : 10.0 GiB (92%)
Title : Coming To America, 1988, 1080p, , -=Dkom=-
Writing library : core 92 r1510 33d382a
Encoding settings : cabac=1 / ref=4 / deblock=1:-3:-3 / analyse=0x3:0x133 / me=umh / subme=10 / psy=1 / psy_rd=0.95:0.01 / mixed_ref=1 / me_range=64 / chroma_me=1 / trellis=2 / 8x8dct=1 / cqm=0 / deadzone=21,11 / fast_pskip=0 / chroma_qp_offset=-3 / threads=3 / sliced_threads=0 / nr=0 / decimate=1 / interlaced=0 / constrained_intra=0 / bframes=7 / b_pyramid=2 / b_adapt=2 / b_bias=0 / direct=3 / wpredb=1 / wpredp=2 / keyint=250 / keyint_min=25 / scenecut=40 / intra_refresh=0 / rc_lookahead=40 / rc=2pass / mbtree=1 / bitrate=12121 / ratetol=1.0 / qcomp=0.60 / qpmin=10 / qpmax=51 / qpstep=4 / cplxblur=20.0 / qblur=0.5 / vbv_maxrate=25000 / vbv_bufsize=25000 / ip_ratio=1.40 / aq=1:1.00 / nal_hrd=none
Audio #3
ID : 3
Format : AC-3
Format/Info : Audio Coding 3
Format_Settings_ModeExtension : CM (complete main)
Codec ID : A_AC3
Duration : 1h 56mn
Bit rate mode : Constant
Bit rate : 192 Kbps
Channel(s) : 2 channels
Channel positions : Front: L R
Sampling rate : 48.0 KHz
Stream size : 160 MiB (1%)
Audio #4
ID : 4
Format : AC-3
Format/Info : Audio Coding 3
Format_Settings_ModeExtension : CM (complete main)
Codec ID : A_AC3
Duration : 1h 56mn
Bit rate mode : Constant
Bit rate : 192 Kbps
Channel(s) : 2 channels
Channel positions : Front: L R
Sampling rate : 48.0 KHz
Stream size : 160 MiB (1%)
Audio #5
ID : 5
Format : AC-3
Format/Info : Audio Coding 3
Format_Settings_ModeExtension : CM (complete main)
Codec ID : A_AC3
Duration : 1h 56mn
Bit rate mode : Constant
Bit rate : 448 Kbps
Channel(s) : 6 channels
Channel positions : Front: L C R, Side: L R, LFE
Sampling rate : 48.0 KHz
Stream size : 374 MiB (3%)
Text #2
ID : 2
Format : UTF-8
Codec ID : S_TEXT/UTF8
Codec ID/Info : UTF-8 Plain Text


Подяка панам POMEO, servus12, taraskill1 за українські аудіодоріжки
Джерело:


Срібний реліз (на рейтинг впливає 50% завантаженого)
 Трекер:    Зареєстрований   

Завантажити / скачати фільм українською



відео для новачків



 Зареєстрований:   2018-01-03 16:35
 Розмір:   10.94 GB 
 Оцінка фільму:   9.9/10 (Голосів: 8)
   
havryk 
VIP


З нами з: 29.06.10
Востаннє: 24.01.20
Повідомлень: 833

2018-01-03 19:24  
omm написано:
двоголосий закадровий

omm написано:
Ролі озвучили: Дмитро Терещук, Євген Пашин, Володимир Терещук і один жіночий

Багатоголосий?

Ваш часовий пояс: GMT + 2 Години

Нова тема   Відповісти