Гора між нами / The Mountain Between Us (2017) 720p Ukr/Eng | Sub Ukr/Eng

Нові коментарі

Нова тема   Відповісти
Автор Повідомлення
Anonymous 







2018-01-02 16:16  
Гора між нами / The Mountain Between Us (2017) 720p Ukr/Eng | Sub Ukr/Eng

Гора між нами / The Mountain Between Us (2017) 720p Ukr/Eng | Sub Ukr/Eng
Альтернативні постери:





Жанр: драма, мелодрама
Країна: США



Кінокомпанія: Chernin Entertainment, Twentieth Century Fox
Режисер: Хані Абу-Ассад / Hany Abu-Assad
Актори: Ідріс Ельба / Idris Elba, Кейт Вінслет / Kate Winslet, Бо Бріджес / Beau Bridges, Дермот Малруні / Dermot Mulroney та інші

Сюжет:
Над лісами штату Колорадо сталася авіакатастрофа. Випадкові попутники, чоловік і жінка, змушені тепер лише спільними зусиллями виживати в дикому середовищі. Але доктор Бен Трейс та письменниця Ешлі не мають наміру так просто здаватися...
Офіційний український трейлер:


Рейтинг MPAA: PG-13 - дітям до 13 років перегляд не бажаний
Вікова категорія: 12+

Тривалість: 01:51:49
Якість: 720p
Відео:
кодек:
розмір кадру: 1280 х 536
бітрейт: 4000 кб/с

Аудіо # 1:
мова: українська
переклад: професійний дубльований | студія Postmodern
кодек: 2.0 [stereo]
бітрейт: 192 кб/с
Інформація про дубляж:
Переклад: Дмитро Рассказов
Режисер дубляжу: Людмила Петриченко
Звукорежисер: Геннадій Алексєєв
Менеджер проекту: Ірина Туловська
Ролі дублювали: Бен - Кирило Нікітенко, Алекс - Катерина Сєргеєва, Волтер - Євген Пашин, Марк - Андрій Твердак, Пем - Наталя Надірадзе, Сара - Людмила Петриченко. А також В'ячеслав Дудко, Володимир Канівець, Дмитро Бузинський, Аліса Гур'єва, Андрій Мостренко, Катерина Башкіна-Зленко.

Фільм дубльовано компанією Postmodern
Аудіо # 2:
мова: англійська
переклад: оригінал
кодек: 5.1
бітрейт: 640 кб/с

Субтитри # 1:
мова: українська
тип: програмні (м'які)
формат: *.srt

Субтитри # 2-3:
мова: англійська (повні, SHD)
тип: програмні (м'які)
формат: *.srt

Збережено оригінальні розділи, як на Blu-ray
Info та log
Код:
Complete name               : The Mountain Between Us (2017) [Ukr,Eng sub.Ukr,Eng] 720p [Hurtom].
Format                      :
Format version              : Version 4 / Version 2
File size                   : 3.77 GiB
Duration                    : 1 h 51 min
Overall bit rate            : 4 832 kb/s
Movie name                  : Гора між нами / The Mountain Between Us (2017) [Ukr,Eng sub.Ukr,Eng] 720p [Hurtom]
Writing library             : libebml v1.3.5 + v1.4.8
Cover                       : Yes
Attachments                 : cover.jpg

Video
ID                          : 1
Format                      : AVC
Format/Info                 : Advanced Video Codec
Format profile              : [email protected]
Format settings             : CABAC / 12 Ref Frames
Format settings, CABAC      : Yes
Format settings, ReFrames   : 12 frames
Codec ID                    : V_MPEG4/ISO/AVC
Duration                    : 1 h 51 min
Bit rate                    : 4 000 kb/s
Width                       : 1 280 pixels
Height                      : 536 pixels
Display aspect ratio        : 2.40:1
Frame rate mode             : Constant
Frame rate                  : 23.976 (24000/1001) FPS
Color space                 : YUV
Chroma subsampling          : 4:2:0
Bit depth                   : 8 bits
Scan type                   : Progressive
Bits/(Pixel*Frame)          : 0.243
Stream size                 : 3.12 GiB (83%)
Title                       : Гора між нами / The Mountain Between Us (2017) 720p
Writing library             : core 152 r2851+58 429492e t_mod_LoRD    [email protected] X86_64
Encoding settings           : cabac=1 / ref=12 / deblock=1:-3:-3 / analyse=0x3:0x133 / me=umh / subme=10 / psy=1 / fade_compensate=0.00 / psy_rd=1.00:0.00 / mixed_ref=1 / me_range=32 / chroma_me=1 / trellis=2 / 8x8dct=1 / cqm=0 / deadzone=21,11 / fast_pskip=0 / chroma_qp_offset=-2 / threads=12 / lookahead_threads=2 / sliced_threads=0 / nr=0 / decimate=0 / interlaced=0 / bluray_compat=0 / constrained_intra=0 / fgo=0 / bframes=8 / b_pyramid=2 / b_adapt=2 / b_bias=0 / direct=3 / weightb=1 / open_gop=0 / weightp=2 / keyint=250 / keyint_min=23 / scenecut=40 / intra_refresh=0 / rc_lookahead=75 / rc=2pass / mbtree=0 / bitrate=4000 / ratetol=1.0 / qcomp=0.60 / qpmin=0:0:0 / qpmax=69:69:69 / qpstep=4 / cplxblur=20.0 / qblur=0.5 / vbv_maxrate=50000 / vbv_bufsize=62500 / nal_hrd=none / filler=0 / ip_ratio=1.20 / pb_ratio=1.20 / aq=3:0.80 / aq-sensitivity=10.00 / aq-factor=1.00:1.00:1.00 / aq2=0 / aq3=0
Language                    : English
Default                     : Yes
Forced                      : No

Audio #1
ID                          : 2
Format                      : AC-3
Format/Info                 : Audio Coding 3
Codec ID                    : A_AC3
Duration                    : 1 h 51 min
Bit rate mode               : Constant
Bit rate                    : 192 kb/s
Channel(s)                  : 2 channels
Channel positions           : Front: L R
Sampling rate               : 48.0 kHz
Frame rate                  : 31.250 FPS (1536 SPF)
Bit depth                   : 16 bits
Compression mode            : Lossy
Stream size                 : 154 MiB (4%)
Title                       : Dub [Postmodern, Megogo] 2.0 [stereo] 192 kbps
Language                    : Ukrainian
Service kind                : Complete Main
Default                     : Yes
Forced                      : Yes

Audio #2
ID                          : 3
Format                      : AC-3
Format/Info                 : Audio Coding 3
Codec ID                    : A_AC3
Duration                    : 1 h 51 min
Bit rate mode               : Constant
Bit rate                    : 640 kb/s
Channel(s)                  : 6 channels
Channel positions           : Front: L C R, Side: L R, LFE
Sampling rate               : 48.0 kHz
Frame rate                  : 31.250 FPS (1536 SPF)
Bit depth                   : 16 bits
Compression mode            : Lossy
Stream size                 : 512 MiB (13%)
Title                       : Original, 5.1 640 Kbps
Language                    : English
Service kind                : Complete Main
Default                     : No
Forced                      : No

Text #1
ID                          : 4
Format                      : UTF-8
Codec ID                    : S_TEXT/UTF8
Codec ID/Info               : UTF-8 Plain Text
Duration                    : 1 h 46 min
Bit rate                    : 48 b/s
Count of elements           : 980
Stream size                 : 37.4 KiB (0%)
Title                       : Ukr Full
Language                    : Ukrainian
Default                     : No
Forced                      : No

Text #2
ID                          : 5
Format                      : UTF-8
Codec ID                    : S_TEXT/UTF8
Codec ID/Info               : UTF-8 Plain Text
Duration                    : 1 h 47 min
Bit rate                    : 34 b/s
Count of elements           : 1067
Stream size                 : 27.1 KiB (0%)
Title                       : Eng full
Language                    : English
Default                     : No
Forced                      : No

Text #3
ID                          : 6
Format                      : UTF-8
Codec ID                    : S_TEXT/UTF8
Codec ID/Info               : UTF-8 Plain Text
Duration                    : 1 h 48 min
Bit rate                    : 41 b/s
Count of elements           : 1334
Stream size                 : 32.6 KiB (0%)
Title                       : Eng SDH
Language                    : English
Default                     : No
Forced                      : No

Menu
00:00:00.000                : :Chapter 01
00:02:58.595                : :Chapter 02
00:08:52.782                : :Chapter 03
00:13:15.377                : :Chapter 04
00:16:21.480                : :Chapter 05
00:21:36.253                : :Chapter 06
00:26:51.985                : :Chapter 07
00:31:53.369                : :Chapter 08
00:38:56.083                : :Chapter 09
00:43:45.372                : :Chapter 10
00:51:04.311                : :Chapter 11
00:57:28.736                : :Chapter 12
01:01:22.720                : :Chapter 13
01:04:39.417                : :Chapter 14
01:07:41.057                : :Chapter 15
01:11:06.428                : :Chapter 16
01:14:56.533                : :Chapter 17
01:19:15.125                : :Chapter 18
01:23:48.398                : :Chapter 19
01:27:52.475                : :Chapter 20
01:32:13.569                : :Chapter 21
01:35:41.652                : :Chapter 22
01:41:48.268                : :Chapter 23
01:45:22.482                : :Chapter 24


Код:
[info]: frame I:1161   Avg QP:11.05 size:114705
[info]: frame P:33171  Avg QP:12.71 size:42548
[info]: frame B:126526 Avg QP:13.56 size:14289
[info]: consecutive  B-frames:1.6% 3.1% 4.6% 24.9% 14.2% 25.4% 7.0% 16.2% 2.9%
Encoded 160858 Frames, 12.81 fps, 3997.42 kb/s, 3197.1 MB - Encoding Duration 3:29:16
Оригінал <----------> Ріп






Джерело: &
Подяка uafilm.tv за придбання доріжки та Electroz'у за синхронізацію.


 Трекер:    Зареєстрований   

Завантажити / скачати фільм українською



відео для новачків



 Зареєстрований:   2018-01-02 16:34
 Розмір:   3.77 GB 
 Оцінка фільму:   8.7/10 (Голосів: 47)
   
waldi-hurtom 
VIP


З нами з: 07.10.12
Востаннє: 21.10.18
Повідомлень: 815

2018-01-03 21:55  
Гімно рідкісне. Голівуд поповнив лави знавців морозу та снігу уродженцем Назарету Абу-Ассадом. Тепер у них повний ніштяк - відпадна інструкція з виживання до ваших послуг! 1 з 10.
Mongoose 
Свій


З нами з: 27.03.16
Востаннє: 21.10.18
Повідомлень: 136

2018-01-04 13:21  
Лажа.
Вийняти телефон, побачити, що нема мережі, але на горі, де GPS сигнал буде в 140 мільярдів разів кращий, не подивитися в яку сторону йти. Ненавиджу тупі фільми.
Власне фільму там десь пів-години, решта - розмови і ходіння під музику.
2/10

Lyolic 
VIP


З нами з: 04.08.09
Востаннє: 22.10.18
Повідомлень: 305

2018-01-04 17:41  
Mongoose написано:
Вийняти телефон, побачити, що нема мережі, але на горі, де GPS сигнал буде в 140 мільярдів разів кращий, не подивитися в яку сторону йти.

Теж про це подумав, але не завжди в телефоні є офлайн мапи...
А сам фільм нуднуватий.

Mongoose 
Свій


З нами з: 27.03.16
Востаннє: 21.10.18
Повідомлень: 136

2018-01-06 00:30  
Lyolic написано:
не завжди в телефоні є офлайн мапи

Я думаю, що рідне місто провантажило, а для оріжнтування цього достатньо навіть "не сильному" туристу

Lyolic 
VIP


З нами з: 04.08.09
Востаннє: 22.10.18
Повідомлень: 305

2018-01-06 00:49  
Mongoose
Як допоможе рідне місто, якщо воно на іншому краю країни? Happy

Mongoose 
Свій


З нами з: 27.03.16
Востаннє: 21.10.18
Повідомлень: 136

2018-01-06 01:17  
Lyolic
Визначенням приблизної відстані від нього і напрямку Happy

Lyolic 
VIP


З нами з: 04.08.09
Востаннє: 22.10.18
Повідомлень: 305

2018-01-06 04:05  
Mongoose
OK Навіть підвантажився весь штат, звідки летіли. Куди йдемо? Happy
Масштаб внизу можна глянути Happy

klan3000 
Новенький


З нами з: 26.01.13
Востаннє: 21.10.18
Повідомлень: 1

2018-01-09 23:34  
Фільм доволі непоганий, задум хороший хоча кінцівка могла б бути кращою!
Ahatanhel 
Новенький


З нами з: 24.09.11
Востаннє: 08.10.18
Повідомлень: 6

2018-01-13 23:39  
хороший фільм, дякую)
shangri-la 
Новенький


З нами з: 09.12.11
Востаннє: 17.08.18
Повідомлень: 1

2018-01-20 12:37  
Головні герої попри 3 тижні в горах - виглядають так само, як і на початку пригоди. Не осунулися, в чистому одязі, ба, навіть_пахви_поголені! Нудний, неправдивий фільм. Ставлю 6/10.
demetrius52 
Поважний учасник


З нами з: 02.04.17
Востаннє: 21.10.18
Повідомлень: 248

2018-02-04 22:57  
Anonymous
інформація про дубляж
Переклад: Дмитро Рассказов
Режисер дубляжу: Людмила Петриченко
Звукорежисер: Геннадій Алексєєв
Менеджер проекту: Ірина Туловська
Ролі дублювали: Бен - Кирило Нікітенко, Алекс - Катерина Сєргеєва, Волтер - Євген Пашин, Марк - Андрій Твердак, Пем - Наталя Надірадзе, Сара - Людмила Петриченко,
а також В'ячеслав Дудко, Володимир Канівець, Дмитро Бузинський, Аліса Гур'єва, Андрій Мостренко, Катерина Башкіна-Зленко
Фільм дубльовано компанією Postmodern

Anonymous 







2018-02-04 23:04  
demetrius52, дякую, додав.
demetrius52 
Поважний учасник


З нами з: 02.04.17
Востаннє: 21.10.18
Повідомлень: 248

2018-02-05 00:30  
Anonymous
будь-ласка

Loki_ss 
Новенький


З нами з: 10.01.16
Востаннє: 19.10.18
Повідомлень: 9

2018-05-30 10:19  
Таке... Ніякої правди щодо ситуації в горах, пар з рота не йде, за 3 тижні поневірянь та блукань по горах зовнішність аж ніяк не змінилась (ані волосся, ані пухки щочки Кейт Вінслет). Не вірю! Хіба що драма відношень, але ті страждання-зітхання теж якісь неприродні, чи я чогось не розумію... Єдине що рятує стрічку - краєвиди!

Висновок - 6 тільки за спробу та краєвиди.

Ваш часовий пояс: GMT + 2 Години

Нова тема   Відповісти