Дихай / Breathe (2017)

Нові коментарі

Нова тема   Відповісти
Автор Повідомлення
Anonymous 







2018-01-02 04:22  
Дихай / Breathe (2017)

Дихай / Breathe (2017)


Жанр: біографія, драма, мелодрама
Країна: Велика Британія



Кінокомпанія: Imaginarium Productions
Режисер: Енді Серкіс
Актори: Ендрю Гарфілд, Клер Фой, Едвард Спелірс, Том Холландер, Девід Батлер, Бен Ллойд-Хьюз, Міранда Рейсон, Камілла Разерфорд, Андре Джейкобс, Террі Нортон

Сюжет:
Реальна історія красивого і талановитого чоловіка Робіна Кавендіша, який зі своєю дружиною Діаною дуже люблять пригоди. Але їх життя приймає драматичний оборот, коли він опиняється паралізованим після поліомієліту.


Тривалість: 01:58:07
Якість:

Відео:
кодек:
розмір кадру: 704 х 256
бітрейт: 1313 кб/с

Аудіо # 1:
мова: українська
переклад: професійний дубльований
кодек: 5.1
бітрейт: 384 кб/с
Інформація про дубляж
Переклад: Юлія Когут
Режисер і звукорежисер перезапису: Олександр Єфімов
Ролі дублювали: Дмитро Гаврилов, Катерина Брайковська, Андрій Альохін, Юлія Перенчук, Андрій Федінчик, Дмитро Завадський, Ольга Радчук, Андрій Мостренко, Антоніна Якушева, Євген Пашин, Роман Чорний, Ярослав Чорненький, Юрій Ребрик, Іван Розін, Ірина Грей, Катерина Буцька, Павло Скороходько та інші.
Фільм дубльовано студією AAA-Sound у 2017 році на замовлення компанії Вольга Україна.
Info
Код:
General
Complete name               : Breathe (2017) [Ukr] [Hurtom].avi
Format                      : AVI
Format/Info                 : Audio Video Interleave
File size                   : 1.41 GiB
Duration                    : 1 h 58 min
Overall bit rate            : 1 706 kb/s
Writing application         : VirtualDubModUkr 1.5.10.2 (build 2542/release)
Writing library             : VirtualDubMod build 2542/release

Video
ID                          : 0
Format                      : MPEG-4 Visual
Format profile              : Advanced [email protected]
Format settings             : BVOP1 / Custom Matrix
Format settings, BVOP       : 1
Format settings, QPel       : No
Format settings, GMC        : No warppoints
Format settings, Matrix     : Custom
Codec ID                    :
Codec ID/Hint               :
Duration                    : 1 h 58 min
Bit rate                    : 1 313 kb/s
Width                       : 704 pixels
Height                      : 256 pixels
Display aspect ratio        : 2.750
Frame rate                  : 23.976 (24000/1001) FPS
Color space                 : YUV
Chroma subsampling          : 4:2:0
Bit depth                   : 8 bits
Scan type                   : Progressive
Compression mode            : Lossy
Bits/(Pixel*Frame)          : 0.304
Stream size                 : 1.08 GiB (77%)
Writing library             : 73

Audio
ID                          : 1
Format                      : AC-3
Format/Info                 : Audio Coding 3
Codec ID                    : 2000
Duration                    : 1 h 58 min
Bit rate mode               : Constant
Bit rate                    : 384 kb/s
Channel(s)                  : 6 channels
Channel positions           : Front: L C R, Side: L R, LFE
Sampling rate               : 48.0 kHz
Frame rate                  : 31.250 FPS (1536 SPF)
Bit depth                   : 16 bits
Compression mode            : Lossy
Stream size                 : 324 MiB (23%)
Alignment                   : Split accross interleaves
Interleave, duration        : 42  ms (1.00 video frame)
Interleave, preload duratio : 500  ms
Service kind                : Complete Main


Джерело: &


 Трекер:    Зареєстрований   

Завантажити / скачати фільм українською



відео для новачків



 Зареєстрований:   2018-01-02 04:43
 Розмір:   1.41 GB 
 Оцінка фільму:   9.6/10 (Голосів: 56)
   
Інші релізи
   Дихай / Breathe (2017) Ukr/Eng antik_2008  2 / 0   2.05 GB   2018-01-02 12:52 
   Дихай / Breathe (2017) 1080p Ukr/Eng | Sub Eng igor911  3 / 0   10.08 GB   2018-01-02 07:44 
   Дихай / Breathe (2017) Remux 1080p Ukr/Eng | Sub Eng Dr.S  0 / 0   30.58 GB   2017-12-31 17:29 
   Дихай / Breathe (2017) 720p Ukr/Eng | Sub Eng 11FrYkT  1 / 0   4.41 GB   2017-12-30 14:42 
   Дихай / Breathe (2017) AVC Ukr/Eng | Sub Eng 11FrYkT  8 / 0   2.18 GB   2017-12-30 14:40 
kozachka1971 
Новенький


З нами з: 15.04.14
Востаннє: 21.10.18
Повідомлень: 23

2018-01-03 21:36  
Мабуть після цього фільму довго ще не зможу щось подивитись. Надзвичайно сильний фільм. Не раджу, а обов'язково до перегляду. Один із фільмів, який змінює світогляд.
artropant 
Забанено
Забанено


З нами з: 05.02.17
Востаннє: 31.01.18
Повідомлень: 15

2018-01-04 14:26  
Гарний фільм. [url=https://спам видалено]Wink (1)[/url]
bogd_b 
Свій


З нами з: 09.01.12
Востаннє: 24.04.19
Повідомлень: 123

2018-01-07 18:55  
Цікавий, заснований на реальних подіях. 7/10.
3000GT 
Свій


З нами з: 09.01.17
Востаннє: 19.04.19
Повідомлень: 67

2018-01-08 05:30  
Хороше кіно, добре. 9/10. Чувак схожий на Хокінґа.
747 
VIP


З нами з: 21.05.10
Востаннє: 25.04.19
Повідомлень: 260

2018-01-08 17:50  
Важкий та неймовірний фільм. Важко повірити що людина так довго прожила прикутою до ліжка чи то візка. Так, дружина зробила неймовірне, вона практично витягла його з того світу. Також, дуже сподобались намагання допомогти і нішим, хоч трішки жити а не існувати як рослини. Чорт, після перегляду якось ніяково. Заслужена 10 за чудову екранізацію такого важкого життя.
andriy_nv 
VIP


З нами з: 27.06.08
Востаннє: 25.04.19
Повідомлень: 860

2018-03-25 18:41  
шкода що кінець такий сумний,
а так змушує задуматись

bogd_b 
Свій


З нами з: 09.01.12
Востаннє: 24.04.19
Повідомлень: 123

2018-05-05 22:28  
Вартує уваги, 7,5/10.
Ваш часовий пояс: GMT + 2 Години

Нова тема   Відповісти