Іноземець / The Foreigner (2017) Remux 1080p Ukr/Eng | Sub Eng

Нові коментарі

Нова тема   Відповісти
Автор Повідомлення
Anonymous 







2018-01-01 17:31  
Іноземець / The Foreigner (2017) Remux 1080p Ukr/Eng | Sub Eng

Іноземець / The Foreigner (2017) Remux 1080p Ukr/Eng | Sub Eng


Жанр: бойовик, трилер, драма, кримінальний, детектив
Країна: США, Велика Британія, Китай



Кінокомпанія: STX Entertainment, Sparkle Roll Media, Wanda Media Co.
Режисер: Мартін Кемпбелл / Martin Campbell
Актори: Джекі Чан / Jackie Chan, Пірс Броснан / Pierce Brosnan, Кеті Льюнґ / Katie Leung, Майкл МакЕлгаттон / Michael McElhatton, Чарлі Мерфі / Charlie Murphy, Орла Брейді / Orla Brady, Девід Пірс / David Pearse, Піппа Беннетт-Ворнер / Pippa Bennett-Warner, Хорхе Леон Мартінес / Jorge Leon Martinez, Лія Вільямс / Lia Williams та інші

Сюжет:
Колишній спецагент, ветеран в'єтнамської війни Цюань давно склав зброю і вів мирне життя. Але після того, як в теракті прямо на очах гине його дочка-підліток, бачачи, що влада не поспішає розшукувати злочинців, Цюань сам починає пошук вбивці. Він піде на все, щоб помститися.


Тривалість: 01:53:52
Якість: Remux
Відео:
кодек:
розмір кадру: 1920 x 1080
бітрейт: 31,4 Mb/s

Аудіо # 1:
мова: українська
переклад: професійний дубльований | студія Tretyakoff production
кодек: 2.0
бітрейт: 192 kb/s

Аудіо # 2:
мова: англійська
переклад: оригінал
кодек: 5.1
бітрейт: 640 kb/s

Аудіо # 3:
мова: англійська
переклад: оригінал
кодек: -HD MA 7.1
бітрейт: 4076 kb/s

Субтитри # 1:
мова: англійська (форсовані, на кілька фраз китайською)
тип: вбудовані (жорсткі)

Субтитри # 2-3:
мова: англійська (повні, SDH)
тип: програмні (м'які)
формат: *.srt
Info

General
Unique ID : 330295551216316608876316951944415215602 (0xF87C9BF85E1CB297977C1DDAFBECFFF2)
Format :
Format version : Version 4 / Version 2
File size : 28.9 GiB
Duration : 1 h 53 min
Overall bit rate mode : Variable
Overall bit rate : 36.4 Mb/s
Movie name : The Foreigner
Encoded date : UTC 2018-03-12 18:32:30
Writing application : v9.8.0 ('Kuglblids') 64bit
Writing library : libebml v1.3.4 + v1.4.5

Video
ID : 1
Format : AVC
Format/Info : Advanced Video Codec
Format profile : [email protected]
Format settings, CABAC : Yes
Format settings, ReFrames : 4 frames
Codec ID : V_MPEG4/ISO/AVC
Duration : 1 h 53 min
Bit rate mode : Variable
Bit rate : 31.4 Mb/s
Maximum bit rate : 35.0 Mb/s
Width : 1 920 pixels
Height : 1 080 pixels
Display aspect ratio : 16:9
Frame rate mode : Constant
Frame rate : 23.976 (24000/1001) FPS
Color space : YUV
Chroma subsampling : 4:2:0
Bit depth : 8 bits
Scan type : Progressive
Bits/(Pixel*Frame) : 0.633
Stream size : 25.0 GiB (86%)
Title : MPEG-4 AVC Video / 32611 kbps / 1080p / 23.976 fps / 16:9 / High Profile 4.1
Language : English
Default : Yes
Forced : Yes

Audio #1
ID : 2
Format : AC-3
Format/Info : Audio Coding 3
Mode extension : CM (complete main)
Format settings, Endianness : Big
Codec ID : A_AC3
Duration : 1 h 53 min
Bit rate mode : Constant
Bit rate : 192 kb/s
Channel(s) : 2 channels
Channel positions : Front: L R
Sampling rate : 48.0 kHz
Frame rate : 31.250 FPS (1536 spf)
Bit depth : 16 bits
Compression mode : Lossy
Stream size : 156 MiB (1%)
Title : Українська, , ch 2.0, 192 kb/s
Language : Ukrainian
Default : Yes
Forced : Yes

Audio #2
ID : 3
Format : AC-3
Format/Info : Audio Coding 3
Mode extension : CM (complete main)
Format settings, Endianness : Big
Codec ID : A_AC3
Duration : 1 h 53 min
Bit rate mode : Constant
Bit rate : 640 kb/s
Channel(s) : 6 channels
Channel positions : Front: L C R, Side: L R, LFE
Sampling rate : 48.0 kHz
Frame rate : 31.250 FPS (1536 spf)
Bit depth : 16 bits
Compression mode : Lossy
Stream size : 521 MiB (2%)
Title : English, , ch 5.1, 640 kb/s
Language : English
Default : No
Forced : No

Audio #3
ID : 4
Format :
Format/Info : Digital Theater Systems
Format profile : MA / Core
Mode : 16
Format settings, Endianness : Big
Codec ID : A_DTS
Duration : 1 h 53 min
Bit rate mode : Variable / Constant
Bit rate : 4 076 kb/s / 1 509 kb/s
Channel(s) : 8 channels / 6 channels
Channel positions : Front: L C R, Side: L R, Back: L R, LFE / Front: L C R, Side: L R, LFE
Sampling rate : 48.0 kHz
Frame rate : 93.750 FPS (512 spf)
Bit depth : 24 bits
Compression mode : Lossless / Lossy
Stream size : 3.24 GiB (11%)
Title : English, -HD MA, ch 7.1, 4076 kbps
Language : English
Default : No
Forced : No

Text #1
ID : 5
Format : UTF-8
Codec ID : S_TEXT/UTF8
Codec ID/Info : UTF-8 Plain Text
Duration : 1 h 44 min
Bit rate : 53 b/s
Count of elements : 1143
Stream size : 41.0 KiB (0%)
Title : Full
Language : English
Default : Yes
Forced : Yes

Text #2
ID : 6
Format : UTF-8
Codec ID : S_TEXT/UTF8
Codec ID/Info : UTF-8 Plain Text
Duration : 1 h 45 min
Bit rate : 59 b/s
Count of elements : 1352
Stream size : 46.0 KiB (0%)
Title : SDH
Language : English
Default : No
Forced : No

Menu
00:00:00.000 : en:Chapter 1
00:08:19.541 : en:Chapter 2
00:15:49.574 : en:Chapter 3
00:21:47.765 : en:Chapter 4
00:27:04.164 : en:Chapter 5
00:32:09.511 : en:Chapter 6
00:35:24.164 : en:Chapter 7
00:38:30.934 : en:Chapter 8
00:43:50.169 : en:Chapter 9
00:47:38.189 : en:Chapter 10
00:54:10.497 : en:Chapter 11
01:01:42.324 : en:Chapter 12
01:08:07.333 : en:Chapter 13
01:14:14.033 : en:Chapter 14
01:18:42.927 : en:Chapter 15
01:23:26.877 : en:Chapter 16
01:29:18.812 : en:Chapter 17
01:38:55.012 : en:Chapter 18
01:43:45.928 : en:Chapter 19
01:47:09.298 : en:Chapter 20
Скріншоти


Джерело: &
Особиста оцінка: 10 - без зайвих вагань рекомендую всім!


Золотий реліз (завантажене не впливає на рейтинг)
 Трекер:    Зареєстрований   

Завантажити / скачати фільм українською



відео для новачків



 Зареєстрований:   2018-03-12 23:20
 Розмір:   28.92 GB 
 Оцінка фільму:   9.3/10 (Голосів: 34)
   
Інші релізи
   Іноземець / The Foreigner (2017) 1080p Ukr/Eng | Sub Eng Electroz  13 / 0   12.17 GB   2018-01-01 15:45 
   Іноземець / The Foreigner (2017) 720p Ukr/Eng | Sub Eng igor911  15 / 0   5.03 GB   2017-12-31 02:06 
   Іноземець / The Foreigner (2017) AVC Ukr/Eng | Sub Eng 11FrYkT  33 / 0   2.18 GB   2017-12-30 22:46 
   Іноземець / The Foreigner (2017) Covenant  20 / 0   1.45 GB   2017-12-30 22:34 
igor911 
Модератор відео


З нами з: 18.01.08
Востаннє: 25.05.19
Повідомлень: 12541

2018-01-01 18:30  
Бажано зберігати оригінальні розділи (chapters), як на блуреї.
Hovik 
Частий відвідувач


З нами з: 28.12.15
Востаннє: 21.05.19
Повідомлень: 41

2018-01-10 17:57  
На жаль, при перегляді з англійською доріжкою зовнішний медіаплеєр зависає. Чим ближче до кінця фільму - тим частіше.
igor911 
Модератор відео


З нами з: 18.01.08
Востаннє: 25.05.19
Повідомлень: 12541

2018-01-10 18:07  
Hovik, з якою з двох? чи -HD MA 7.1 ?
Також імовірною причиною може бути те, що кінцева збірка контейнера була проведена не стабільним мквтулніксом, а іншим софтом. В такому разі можна спробувати перемуксувати контейнер останньою версією.

Hovik 
Частий відвідувач


З нами з: 28.12.15
Востаннє: 21.05.19
Повідомлень: 41

2018-01-10 19:01  
igor911
З -HD MA 7.1. Перед переглядом добавляв субтитри мквтулніксом 19.0.0, зараз це остання версія. Фільм додивився в дубляжі.

igor911 
Модератор відео


З нами з: 18.01.08
Востаннє: 25.05.19
Повідомлень: 12541

2018-01-10 19:02  
Hovik, отже це проблеми твого програвача.
Hovik 
Частий відвідувач


З нами з: 28.12.15
Востаннє: 21.05.19
Повідомлень: 41

2018-01-10 20:10  
igor911
Так, дійсно, проблема в прошивці програвача. При перегляді програвачем другого виробника все нормально.

O_omarella! 
Свій


З нами з: 14.06.13
Востаннє: 11.05.19
Повідомлень: 116

2018-01-14 11:08  
Не погане кіно, дякую за якість!
archi86 
Свій


З нами з: 06.01.15
Востаннє: 25.05.19
Повідомлень: 127

2018-01-14 12:26  
Класний фільм.
TeronUA 
VIP


З нами з: 13.02.09
Востаннє: 25.05.19
Повідомлень: 341

2018-03-05 01:30  
Є проблема зі звуком. Кілька хвилин фільму взагалі без звуку.
Chechako 
Новенький


З нами з: 21.07.14
Востаннє: 22.05.19
Повідомлень: 1

2018-03-09 20:16  
На iNext HD відтворюється з проблемами, можна сказати не відтворюється. На Dune - норм.
igor911 
Модератор відео


З нами з: 18.01.08
Востаннє: 25.05.19
Повідомлень: 12541

2018-03-09 20:42  
TeronUA написано:
Є проблема зі звуком

Chechako написано:
можна сказати не відтворюється

мабуть це через відомий глюк ffmpeg, яким зібрано у цьому релізі.
Anonymous написано:
Writing application : Lavf57.56.101
Writing library : Lavf57.56.101 / Lavf57.56.101
ErrorDetectionType : Per level 1

глюк проявляється при збірці з розділами. Треба перезібрати за допомогою mkvtoolnix.

Uberwinder 
VIP


З нами з: 18.11.16
Востаннє: 25.05.19
Повідомлень: 277

2018-03-11 17:19  
Фільм цікавий, але при перегляді усі наявні плейери (на різних движках) час від часу зависали (починаючи приблизно з 40 хвилини).
igor911 
Модератор відео


З нами з: 18.01.08
Востаннє: 25.05.19
Повідомлень: 12541

2018-03-13 00:12  
Реліз оновлено - перемуксовано іншою програмою, тепер має відтворюватись без проблем.
TeronUA 
VIP


З нами з: 13.02.09
Востаннє: 25.05.19
Повідомлень: 341

2018-03-13 02:25  
Дякую за перезалитий файл!Happy) Завантажу - подивлюсь!)
Ваш часовий пояс: GMT + 2 Години

Нова тема   Відповісти