Історія Попелюшки 3 / A Cinderella Story: Once Upon a Song (2011) 720p Ukr/Eng | Sub Ukr/Eng

Нові коментарі

Нова тема   Відповісти
Автор Повідомлення
Anonymous 







2018-01-01 13:56  
Історія Попелюшки 3 / A Cinderella Story: Once Upon a Song (2011) 720p Ukr/Eng | Sub Ukr/Eng

Історія Попелюшки 3 / A Cinderella Story: Once Upon a Song (2011) 720p Ukr/Eng | Sub Ukr/Eng
Альтернативний постер



Жанр: романтичний, комедія, сімейний, музичний
Країна: США



Кінокомпанія: Warner Premiere
Режисер: Деймон Сантостефано / Damon Santostefano
Актори: Люсі Гейл / Lucy Hale, Міссі Пайл / Missi Pyle, Меган Парк / Megan Park, Фредді Строма / Freddie Stroma, Тітус Макін мoл. / Titus Makin Jr., Джессалін Ванлім / Jessalyn Wanlim, Люсі Девенпорт / Lucy Davenport, Меттью Лінтц / Matthew Lintz, Емілі Пірс / Emily Pierce, Маню Нарайан / Manu Narayan та інші

Сюжет:
Коли Кеті закохується в Люка - новенького у школі мистецтв, вона намагається привабити його своїм голосом. Але її зведена сестра привертає більше уваги, і Люк закохується не в ту дівчину. Кеті повинна постояти за свої мрії і не дати їх зруйнувати своїй мачусі, а також перешкодити Люку потрапити в обійми до злої зведеної сестри на Зимовому Шоу Талантів.


Тривалість: 01:28:25
Якість: 720p
Відео:
кодек:
розмір кадру: 1280 x 718
бітрейт: 4029 кб/с

Аудіо # 1:
мова: українська
переклад: багатоголосий закадровий
кодек: 2.0
бітрейт: 192 кб/с

Аудіо # 2:
мова: англійська
переклад: оригінал
кодек: 5.1
бітрейт: 384 кб/с

Субтитри:
мова: українська
тип: програмні (м'які)
формат: *.srt
джерело субтитрів: DVD R5

Субтитри:
мова: англійська
тип: програмні (м'які)
формат: *.srt

Збережено оригінальні розділи
Info
Код:
Complete name               : A Cinderella Story 3 Once Upon a Song (2011) [Ukr,Eng sub.Ukr,Eng] 720p [Hurtom].
Format                      :
Format version              : Version 4 / Version 2
File size                   : 2.85 GiB
Duration                    : 1 h 28 min
Overall bit rate            : 4 608 kb/s
Movie name                  : Історія Попелюшки 3 / A Cinderella Story: Once Upon a Song (2011) [Ukr,Eng sub.Ukr,Eng] 720p [Hurtom]
Released date               : 2011
Writing library             : libebml v1.3.5 + v1.4.8
Cover                       : Yes
Comment                     : http://www.imdb.com/title/tt1814614/
Attachments                 : cover.jpg
ARTIST                      : Люсі Гейл / Lucy Hale, Міссі Пайл / Missi Pyle, Меган Парк / Megan Park, Фредді Строма / Freddie Stroma, Тітус Макін мoл. / Titus Makin Jr., Джессалін Ванлім / Jessalyn Wanlim, Люсі Девенпорт / Lucy Davenport, Меттью Лінтц / Matthew Lintz, Емілі Пірс / Emily Pierce, Маню Нарайан / Manu Narayan та інші
DIRECTOR                    : Деймон Сантостефано / Damon Santostefano
GENRE                       : романтичний, комедія, сімейний, музичний
SYNOPSIS                    : Коли Кеті закохується в Люка - новенького у школі мистецтв, вона намагається привабити його своїм голосом. Але її зведена сестра привертає більше уваги, і Люк закохується не в ту дівчину. Кеті повинна постояти за свої мрії і не дати їх зруйнувати своїй мачусі, а також перешкодити Люку потрапити в обійми до злої зведеної сестри на Зимовому Шоу Талантів...
Url                         : https://toloka.to/t86244

Video
ID                          : 1
Format                      : AVC
Format/Info                 : Advanced Video Codec
Format profile              : [email protected]
Format settings             : 2 Ref Frames
Format settings, CABAC      : No
Format settings, ReFrames   : 2 frames
Codec ID                    : V_MPEG4/ISO/AVC
Duration                    : 1 h 28 min
Bit rate                    : 4 029 kb/s
Width                       : 1 280 pixels
Height                      : 718 pixels
Display aspect ratio        : 16:9
Frame rate mode             : Constant
Frame rate                  : 23.976 (23976/1000) FPS
Color space                 : YUV
Chroma subsampling          : 4:2:0
Bit depth                   : 8 bits
Scan type                   : Progressive
Bits/(Pixel*Frame)          : 0.183
Stream size                 : 2.49 GiB (87%)
Title                       : Історія Попелюшки 3 / A Cinderella Story: Once Upon a Song (2011) 720p
Language                    : English
Default                     : Yes
Forced                      : No
Color range                 : Limited
Color primaries             : BT.709
Transfer characteristics    : BT.709
Matrix coefficients         : BT.709

Audio #1
ID                          : 2
Format                      : AC-3
Format/Info                 : Audio Coding 3
Codec ID                    : A_AC3
Duration                    : 1 h 28 min
Bit rate mode               : Constant
Bit rate                    : 192 kb/s
Channel(s)                  : 2 channels
Channel positions           : Front: L R
Sampling rate               : 48.0 kHz
Frame rate                  : 31.250 FPS (1536 SPF)
Bit depth                   : 16 bits
Compression mode            : Lossy
Stream size                 : 121 MiB (4%)
Title                       : MVO [Novyj] 2.0 192 Kbps [Hurtom-Electroz]
Language                    : Ukrainian
Service kind                : Complete Main
Default                     : Yes
Forced                      : Yes

Audio #2
ID                          : 3
Format                      : AC-3
Format/Info                 : Audio Coding 3
Codec ID                    : A_AC3
Duration                    : 1 h 28 min
Bit rate mode               : Constant
Bit rate                    : 384 kb/s
Channel(s)                  : 6 channels
Channel positions           : Front: L C R, Side: L R, LFE
Sampling rate               : 48.0 kHz
Frame rate                  : 31.250 FPS (1536 SPF)
Bit depth                   : 16 bits
Compression mode            : Lossy
Stream size                 : 243 MiB (8%)
Title                       : Original, 5.1 384 Kbps
Language                    : English
Service kind                : Complete Main
Default                     : No
Forced                      : No

Text #1
ID                          : 4
Format                      : UTF-8
Codec ID                    : S_TEXT/UTF8
Codec ID/Info               : UTF-8 Plain Text
Duration                    : 1 h 24 min
Bit rate                    : 106 b/s
Count of elements           : 1133
Stream size                 : 66.1 KiB (0%)
Title                       : Ukr full [DVD R5] [Hurtom - SergoMozaic, igor911]
Language                    : Ukrainian
Default                     : No
Forced                      : No

Text #2
ID                          : 5
Format                      : UTF-8
Codec ID                    : S_TEXT/UTF8
Codec ID/Info               : UTF-8 Plain Text
Duration                    : 1 h 27 min
Bit rate                    : 78 b/s
Count of elements           : 1451
Stream size                 : 50.8 KiB (0%)
Title                       : Eng full
Language                    : English
Default                     : No
Forced                      : No

Menu
00:00:00.000                : en:1
00:10:02.000                : en:2
00:20:35.000                : en:3
00:30:14.000                : en:4
00:43:19.000                : en:5
00:54:00.000                : en:6
01:03:20.000                : en:7
01:12:56.000                : en:8
01:20:51.000                : en:9


Джерело:
Подяки: Electroz'у за підготовку реліза, Bohdan237 за запис з ТБ, SergoMozaic за витягнення, розпізнавання та редагування українських субтитрів. Синхронізація субтитрів під - igor911.



 Трекер:    Зареєстрований   

Завантажити / скачати фільм українською



відео для новачків



 Зареєстрований:   2018-01-01 20:57
 Розмір:   2.85 GB 
 Оцінка фільму:   8.4/10 (Голосів: 5)
   
[email protected] 
VIP


З нами з: 24.03.17
Востаннє: 16.01.21
Повідомлень: 640

2020-08-11 21:12  
6/10
Ваш часовий пояс: GMT + 2 Години

Нова тема   Відповісти