Три богатирі на далеких берегах / Три богатыря на дальних берегах (2012) 720p

Нові коментарі

Нова тема   Відповісти
Автор Повідомлення
sergiyko.5 
Забанено
Забанено


З нами з: 25.02.16
Востаннє: 29.10.20
Повідомлень: 3648

2018-01-01 13:24  
Три богатирі на далеких берегах (2012) 720p

Три богатирі на далеких берегах / Три богатыря на дальних берегах (2012) 720p

Жанр: пригодницький, дитячий, комедія
Країна: Росія
Кінокомпанія: Galaxy Vision, Melnitsa Animation Studio
Режисер: Костянтин Феоктистов
Актори: Дмитро Биковський-Ромашов, Валерій Соловйов, Олег Куликович, Сергій Маковецький, Дмитро Висоцький, Федір Бондарчук, Єлизавета Боярська, Марія Цвєткова-Овсяннікова, Олена Шульман, Лія Медведєва

Сюжет:
На цей раз Альоша Попович, Добриня Микитич та Ілля Муромець, завдяки підступам підступної Баби Яги, виявляються за сімома морями на острові, на якому живуть тубільці і страшний Гомума. В їх відсутність купець Коливано вирішують разом з Бабою-Ягою захопити царство і забрати владу у князя Київського. На допомогу невдалому правителю приходить кінь Юлій, а також дружини богатирів і їх численні родичі. Словом, богатирів і глядачів чекають пригоди на далеких берегах, звичайні й неймовірні.




Тривалість: 01:08:47
Якість:

Відео: кодек: розмір кадру: 1280 х 720 бітрейт: 2800 кб/с
Аудіо: мова: українська переклад: професійний дубльований кодек: 2.0 бітрейт: 192 кб/с
Джерело озвучення:
Про файл:
General
Unique ID : 176532473419409491500460896832339101970 (0x84CEEAEC8548381BAE9BFD8D3EDCC912)
Complete name : D:\Torrents\MULT\Try.Bohatiri.Na.Dalekykh.Berehakh.2012.720p..
Format :
Format version : Version 4 / Version 2
File size : 1.46 GiB
Duration : 1 h 8 min
Overall bit rate : 3 043 kb/s
Movie name : Try bohatiri na dalekykh berehakh 2012 720p by sergiyko
Encoded date : UTC 2018-01-01 11:15:28
Writing application : v19.0.0 ('Brave Captain') 64-bit
Writing library : libebml v1.3.5 + v1.4.8

Video
ID : 1
Format : AVC
Format/Info : Advanced Video Codec
Format profile : [email protected]
Format settings : CABAC / 10 Ref Frames
Format settings, CABAC : Yes
Format settings, ReFrames : 10 frames
Codec ID : V_MPEG4/ISO/AVC
Duration : 1 h 8 min
Bit rate : 2 800 kb/s
Width : 1 280 pixels
Height : 720 pixels
Display aspect ratio : 16:9
Frame rate mode : Constant
Frame rate : 23.976 (24000/1001) FPS
Color space : YUV
Chroma subsampling : 4:2:0
Bit depth : 8 bits
Scan type : Progressive
Bits/(Pixel*Frame) : 0.127
Stream size : 1.37 GiB (94%)
Title : Три богатирі на далеких берегах
Writing library : core 132 r2323+704+51 d571b1c tMod [[email protected] X86]
Encoding settings : cabac=1 / ref=10 / deblock=1:-2:-2 / analyse=0x3:0x113 / me=tesa / subme=11 / psy=1 / fade_compensate=0.00 / psy_rd=0.80:0.05 / mixed_ref=1 / me_range=48 / chroma_me=1 / trellis=2 / 8x8dct=1 / cqm=0 / deadzone=21,11 / fast_pskip=0 / chroma_qp_offset=-3 / threads=16 / lookahead_threads=4 / sliced_threads=0 / nr=0 / decimate=0 / interlaced=0 / bluray_compat=0 / constrained_intra=0 / fgo=0 / bframes=12 / b_pyramid=2 / b_adapt=2 / b_bias=0 / direct=3 / weightb=1 / open_gop=0 / weightp=2 / keyint=240 / keyint_min=23 / scenecut=40 / intra_refresh=0 / rc_lookahead=240 / rc=2pass / mbtree=0 / bitrate=2800 / ratetol=1.0 / qcomp=0.70 / qpmin=0 / qpmax=69 / qpstep=4 / cplxblur=20.0 / qblur=0.5 / vbv_maxrate=50000 / vbv_bufsize=62500 / nal_hrd=none / ip_ratio=1.40 / pb_ratio=1.30 / aq=4:0.80 / aq-sensitivity=10.00 / aq-factor=1.00:1.00:1.00 / aq2=0 / aq3=0
Language : Russian
Default : Yes
Forced : No
Color range : Limited
Matrix coefficients : BT.709

Audio
ID : 2
Format : AC-3
Format/Info : Audio Coding 3
Codec ID : A_AC3
Duration : 1 h 8 min
Bit rate mode : Constant
Bit rate : 192 kb/s
Channel(s) : 2 channels
Channel positions : Front: L R
Sampling rate : 48.0 kHz
Frame rate : 31.250 FPS (1536 SPF)
Bit depth : 16 bits
Compression mode : Lossy
Stream size : 94.5 MiB (6%)
Title : DUB 2ch | ICTV
Language : Ukrainian
Service kind : Complete Main
Default : Yes
Forced : No

Menu
00:00:00.000 : :Chapter 01
00:05:42.342 : :Chapter 02
00:10:39.597 : :Chapter 03
00:16:36.704 : :Chapter 04
00:24:05.861 : :Chapter 05
00:30:40.004 : :Chapter 06
00:35:16.364 : :Chapter 07
00:42:07.983 : :Chapter 08
00:49:30.759 : :Chapter 09
00:54:38.817 : :Chapter 10
01:00:39.761 : :Chapter 11
01:06:27.233 : :Chapter 12
Скріншоти:


Запис/зведення: sergiyko


 Трекер:    Зареєстрований   

Завантажити / скачати мультфільм українською



відео для новачків



 Зареєстрований:   2018-01-01 13:24
 Розмір:   1.46 GB 
 Оцінка мультфільму:   5.3/10 (Голосів: 38)
   
Robar III 
Забанено
Забанено


З нами з: 18.08.11
Востаннє: 01.05.20
Повідомлень: 4905

2018-01-01 14:01  
Тзвідколи це почали озвучувати це ..... І головне нащо?!
shutbanderas 
VIP


З нами з: 09.04.09
Востаннє: 28.02.21
Повідомлень: 290

2018-01-01 23:54  
А про солов'я-розбійника буде?
ua2004 
Відео Гуртом - фільмокрай
Відео Гуртом - фільмокрай


З нами з: 31.01.08
Востаннє: 02.03.21
Повідомлень: 3207

2018-01-02 10:48  
Robar III написано:
Тзвідколи це почали озвучувати це ..... І головне нащо?!

Краще щоб показували російською?

PaBLo.Che 
VIP


З нами з: 20.04.09
Востаннє: 02.03.21
Повідомлень: 290

2018-01-02 11:59  
ua2004 написано:
Краще щоб

..взагалі заборонили цю промосковщину.

Robar III 
Забанено
Забанено


З нами з: 18.08.11
Востаннє: 01.05.20
Повідомлень: 4905

2018-01-02 17:17  
ua2004
А тидивишця цю хрінь?!

SK1974 
Частий відвідувач


З нами з: 15.01.11
Востаннє: 02.03.21
Повідомлень: 27

2018-02-03 09:44  
кокошніки українською)))
strannikosho_trek 
Частий відвідувач


З нами з: 29.05.14
Востаннє: 02.03.21
Повідомлень: 33

2018-02-03 14:15  
Геть москалівське ла*но з українських екранів!
Siegfried 
VIP


З нами з: 01.11.11
Востаннє: 28.02.21
Повідомлень: 343

2018-03-24 14:16  
Гидота.
Але є ж такі, хто завантажує, дивиться та ще й роздає іншим.
Шкода, що оцінки мінус десять нема.

Ваш часовий пояс: GMT + 2 Години

Нова тема   Відповісти