Добриня Микитич та Змій Горинич / Добрыня Никитич и Змей Горыныч (2006) 720p 2xUkr

Нові коментарі

Нова тема   Відповісти
Автор Повідомлення
sergiyko.5 
Забанено
Забанено


З нами з: 25.02.16
Востаннє: 29.10.20
Повідомлень: 3648

2018-01-01 09:43  
Добриня Микитич та Змій Горинич (2006) 720p 2xUkr

Добриня Микитич та Змій Горинич / Добрыня Никитич и Змей Горыныч (2006) 720p 2xUkr

Жанр: дитячий, комедія, пригодницький
Країна: Росія
Кінокомпанія: Кінокомпанія CTB
Режисер: Констянтин Бронзіт

Сюжет:
Не перевелися ще богатирі на землі руській! І один з них – доблесний воїн Добриня Микитич, що перебуває на службі у Князя Київського. І, здавалося б, кому, як не йому, повинен доручити Князь врятувати Забаву з пазуристих лап викрав її Змія Горинича? Але не відпускає Князь Добриню на пошуки племінниці.




Тривалість: 01:08:08
Якість:

Відео: кодек: розмір кадру: 1280 х 690 бітрейт: 3870 кб/с
Аудіо #1: мова: українська переклад: професійний дубльований кодек: 2.0 бітрейт: 192 кб/с
Озвучення:
Аудіо #2: мова: українська переклад: професійний дубльований кодек: 2.0 бітрейт: 192 кб/с
Озвучення:
Про файл:
General
Unique ID : 243595865046270472929266096488818636704 (0xB742DB69BC66AC47C2DA6A9F6AE777A0)
Complete name : G:\Torrents2\MULT\Dobrynya.Mykytych.ta.Zmiy.Horynych.2006.720p..
Format :
Format version : Version 4
File size : 2.03 GiB
Duration : 1 h 8 min
Overall bit rate : 4 256 kb/s
Movie name : Добриня Микитич та Змій Горинич 2006 720p by sergiyko
Encoded date : UTC 2018-12-27 16:44:05
Writing application : v29.0.0 ('Like It Or Not') 64-bit
Writing library : libebml v1.3.6 + v1.4.9

Video
ID : 1
Format : AVC
Format/Info : Advanced Video Codec
Format profile : [email protected]
Format settings : CABAC / 8 Ref Frames
Format settings, CABAC : Yes
Format settings, ReFrames : 8 frames
Codec ID : V_MPEG4/ISO/AVC
Duration : 1 h 8 min
Bit rate : 3 870 kb/s
Width : 1 280 pixels
Height : 690 pixels
Display aspect ratio : 1.85:1
Frame rate mode : Constant
Frame rate : 23.976 (24000/1001) FPS
Color space : YUV
Chroma subsampling : 4:2:0
Bit depth : 8 bits
Scan type : Progressive
Bits/(Pixel*Frame) : 0.183
Stream size : 1.84 GiB (91%)
Title : Добриня Микитич та Змій Горинич
Writing library : core 120 r2164 da19765
Encoding settings : cabac=1 / ref=8 / deblock=1:-1:-1 / analyse=0x3:0x113 / me=umh / subme=11 / psy=1 / psy_rd=0.70:0.00 / mixed_ref=1 / me_range=32 / chroma_me=1 / trellis=2 / 8x8dct=1 / cqm=0 / deadzone=21,11 / fast_pskip=0 / chroma_qp_offset=-2 / threads=6 / sliced_threads=0 / nr=0 / decimate=0 / interlaced=0 / bluray_compat=0 / constrained_intra=0 / bframes=9 / b_pyramid=2 / b_adapt=2 / b_bias=0 / direct=3 / weightb=1 / open_gop=0 / weightp=2 / keyint=250 / keyint_min=23 / scenecut=40 / intra_refresh=0 / rc_lookahead=60 / rc=2pass / mbtree=1 / bitrate=3870 / ratetol=1.0 / qcomp=0.70 / qpmin=0 / qpmax=69 / qpstep=4 / cplxblur=20.0 / qblur=0.5 / vbv_maxrate=50000 / vbv_bufsize=62500 / nal_hrd=none / ip_ratio=1.10 / aq=2:0.70
Default : Yes
Forced : No
Color range : Limited
Matrix coefficients : BT.709

Audio #1
ID : 2
Format : AC-3
Format/Info : Audio Coding 3
Commercial name : Dolby Digital
Codec ID : A_AC3
Duration : 1 h 8 min
Bit rate mode : Constant
Bit rate : 192 kb/s
Channel(s) : 2 channels
Channel layout : L R
Sampling rate : 48.0 kHz
Frame rate : 31.250 FPS (1536 SPF)
Bit depth : 16 bits
Compression mode : Lossy
Stream size : 93.4 MiB (5%)
Title : DUB | ICTV
Language : Ukrainian
Service kind : Complete Main
Default : Yes
Forced : Yes

Audio #2
ID : 3
Format : AC-3
Format/Info : Audio Coding 3
Commercial name : Dolby Digital
Codec ID : A_AC3
Duration : 1 h 8 min
Bit rate mode : Constant
Bit rate : 192 kb/s
Channel(s) : 2 channels
Channel layout : L R
Sampling rate : 48.0 kHz
Frame rate : 31.250 FPS (1536 SPF)
Bit depth : 16 bits
Compression mode : Lossy
Stream size : 93.4 MiB (5%)
Title : DUB | трк Україна
Language : Ukrainian
Service kind : Complete Main
Default : No
Forced : No
Скріншоти:


Запис/зведення: sergiyko


 Трекер:    Зареєстрований   

Завантажити / скачати мультфільм українською



відео для новачків



 Зареєстрований:   2018-12-27 18:47
 Розмір:   2.03 GB 
 Оцінка мультфільму:   5.1/10 (Голосів: 56)
   
atomoxod 
Новенький


З нами з: 25.11.14
Востаннє: 17.02.21
Повідомлень: 18

2018-01-02 15:01  
Давайте зробимо окремий розділ "Російське гівно" і об'єднаємо його з розділом "Фінальний смітник"?
Siegfried 
VIP


З нами з: 01.11.11
Востаннє: 04.03.21
Повідомлень: 344

2018-01-02 17:58  
Я от взагалі не розумію, невже не очевидно, що ці лайномульти - це кацапська промивка мізків в першу чергу дітям ?

Нащо таке взагалі перекладати і викладати до завантаження?

piznajko 
Відео Гуртом - субтитрування
Відео Гуртом - субтитрування


З нами з: 24.02.09
Востаннє: 17.11.20
Повідомлень: 2196

2018-01-08 18:00  
SD версія буде?
PaBLo.Che 
VIP


З нами з: 20.04.09
Востаннє: 03.03.21
Повідомлень: 290

2018-01-11 12:28  
atomoxod написано:
Давайте зробимо окремий розділ "Російське гівно" і об'єднаємо його з розділом "Фінальний смітник"?

+

strannikosho_trek 
Частий відвідувач


З нами з: 29.05.14
Востаннє: 03.03.21
Повідомлень: 33

2018-01-14 18:40  
atomoxod
Цитата:
Давайте зробимо окремий розділ "Російське гівно" і об'єднаємо його з розділом "Фінальний смітник"?

Повністю підтримую

piznajko 
Відео Гуртом - субтитрування
Відео Гуртом - субтитрування


З нами з: 24.02.09
Востаннє: 17.11.20
Повідомлень: 2196

2018-06-29 05:47  
piznajko написано:
SD версія буде?

Хтось має можливість SD версіію зробити, бо досі є лише 720p

sergiyko.5 
Забанено
Забанено


З нами з: 25.02.16
Востаннє: 29.10.20
Повідомлень: 3648

2018-12-26 18:02  
Додав другу українську озвучку від ICTV.
Teren 
Частий відвідувач


З нами з: 06.01.10
Востаннє: 02.03.21
Повідомлень: 48

2018-12-26 19:13  
Цитата:
Давайте зробимо окремий розділ "Російське гівно" і об'єднаємо його з розділом "Фінальний смітник"?

+

Цитата:
Я от взагалі не розумію, невже не очевидно, що ці лайномульти - це кацапська промивка мізків в першу чергу дітям ?

Нащо таке взагалі перекладати і викладати до завантаження?

+

andrrrrr 
Новенький


З нами з: 12.11.11
Востаннє: 28.02.21
Повідомлень: 7

2018-12-26 19:45  
Teren написано:


Давайте зробимо окремий розділ "Російське гівно" і об'єднаємо його з розділом "Фінальний смітник"?

+

Цитата:
Я от взагалі не розумію, невже не очевидно, що ці лайномульти - це кацапська промивка мізків в першу чергу дітям ?

Нащо таке взагалі перекладати і викладати до завантаження?

+

+

andros507 
VIP


З нами з: 15.09.10
Востаннє: 01.03.21
Повідомлень: 326

2018-12-26 21:01  
sergiyko.5 написано:
Додав другу українську озвучку від ICTV

Враховуючи, що ICTV дублював продовження цієї франшизи, може краще поставити їхній дубляж першим?

Orest 
Поважний учасник


З нами з: 11.06.08
Востаннє: 03.03.21
Повідомлень: 203

2018-12-26 21:17  
atomoxod
Siegfried
Підтримую!

-Star-Lord- 
VIP


З нами з: 09.08.18
Востаннє: 04.03.21
Повідомлень: 2427

2018-12-26 23:54  
До смітника це ла*но!
piznajko 
Відео Гуртом - субтитрування
Відео Гуртом - субтитрування


З нами з: 24.02.09
Востаннє: 17.11.20
Повідомлень: 2196

2018-12-27 00:43  
Хлопці попустітьця. Дубльовано українською - і радуйтеся, бо раніше було доступно лише російською. А тепер батьки зможуть показати дітям українською
-Star-Lord- 
VIP


З нами з: 09.08.18
Востаннє: 04.03.21
Повідомлень: 2427

2018-12-27 10:38  
piznajko написано:
Хлопці попустітьця. Дубльовано українською - і радуйтеся, бо раніше було доступно лише російською. А тепер батьки зможуть показати дітям українською

А якщо ми не хочемо, щоб це показували нашим дітям?

Атлет 
Попереджень: 1
Попереджень: 1 


З нами з: 26.07.18
Востаннє: 02.03.21
Повідомлень: 177

2018-12-27 14:01  
-Star-Lord-
Цитата:

А якщо ми не хочемо, щоб це показували нашим дітям?

Тоді - переїдь, разом зі своїми дітьми до кремля і жебракуйте там разом...
Чудовий мультик, шкода - про українців.(

-Star-Lord- 
VIP


З нами з: 09.08.18
Востаннє: 04.03.21
Повідомлень: 2427

2018-12-27 14:10  
Атлет написано:
Тоді - переїдь, разом зі своїми дітьми до кремля і жебракуйте там разом...

Як це пов'язано?
Я не хочу, щоб наші діти дивилися російську погань. Чим переїзд до Кремля мені в цьому допоможе?

gunnarukr 
VIP


З нами з: 07.01.15
Востаннє: 31.01.21
Повідомлень: 827

2018-12-27 14:19  
-Star-Lord- написано:
Як це пов'язано?

Атлет ще той троль. Перегляньте його профіль та його повідомлення Wink (2)

-Star-Lord- 
VIP


З нами з: 09.08.18
Востаннє: 04.03.21
Повідомлень: 2427

2018-12-27 14:25  
gunnarukr
Запитань більше немає)

Атлет 
Попереджень: 1
Попереджень: 1 


З нами з: 26.07.18
Востаннє: 02.03.21
Повідомлень: 177

2018-12-27 15:04  
Той хто буде вводити вікові обмеження та збирається прибрати "Дитячий" з жанру у Вас й досі є залізо-бетонна іграшка в яку таємно граєтесь? Четверте тисячоріччя від Різдва Христова за порогом. Слава господу, нашому.
sergiyko.5 
Забанено
Забанено


З нами з: 25.02.16
Востаннє: 29.10.20
Повідомлень: 3648

2018-12-27 18:47  
Торент оновлено, доріжка від ICTV поставлена першою.
Віктор Багряний 
VIP


З нами з: 20.08.12
Востаннє: 28.02.21
Повідомлень: 399

2019-01-04 21:18  
поцреоти, ви краще кидайтесь лайном на те, що подібні цьому мульти не створено в Україні.
ніякої промивки мізків не спостерігаю, оскільки мацква і кацапи в даному мульті відсутні, що відповідає історичній правді.

banan.gominid 
Новенький


З нами з: 30.06.13
Востаннє: 04.03.21
Повідомлень: 7

2019-01-05 20:50  
Гімно кацапське.
Чергове богатирське лайно.

Ваш часовий пояс: GMT + 2 Години

Нова тема   Відповісти