Олешко Попович і Тугарин-змій / Альоша Попович і Тугарин Змій (2004) 720p 2xUkr

Нові коментарі

Нова тема   Відповісти
Автор Повідомлення
sergiyko.5 
Забанено
Забанено


З нами з: 25.02.16
Востаннє: 29.10.20
Повідомлень: 3648

2018-01-01 09:37  
Олешко Попович і Тугарин-змій / Альоша Попович і Тугарин Змій (2004) 720p 2xUkr

Олешко Попович і Тугарин-змій / Альоша Попович і Тугарин Змій (2004) 720p 2xUkr

Жанр: дитячий, комедія, пригодницький
Країна: Росія
Кінокомпанія: Кінокомпанія CTB
Режисер: Констянтин Бронзіт

Сюжет:
Втративши лиходіїв тугарських, богатир Альоша Попович повинен відновити своє добре ім'я, повернути золото і прогнати з землі руської Тугарина Змія. Допомагають Альоші в цій нелегкій справі кінь Юлій Цезар, який не в міру балакучий і при цьому боягуз, красна дівиця Любава, Дід з бабою і ослик Мойсей ...




Тривалість: 01:18:46
Якість:

Відео: кодек: розмір кадру: 1280 х 690 бітрейт: 3097 кб/с
Аудіо #1: мова: українська переклад: професійний дубльований кодек: 2.0 бітрейт: 192 кб/с
Озвучення:
Аудіо #2: мова: українська переклад: професійний дубльований кодек: 2.0 бітрейт: 192 кб/с
Озвучення:
Про файл:
General
Unique ID : 98529286440732303766564608139344525108 (0x4A200CE17A89ABC30ABD6E827784B734)
Complete name : G:\Torrents2\MULT\Alosha.Popovych.y.Tuharyn.Zmiy.720p..
Format :
Format version : Version 4
File size : 1.92 GiB
Duration : 1 h 18 min
Overall bit rate : 3 480 kb/s
Movie name : Альоша Попович і Тугарин Змій 2004 720p by sergiyko
Encoded date : UTC 2018-12-27 16:48:54
Writing application : v29.0.0 ('Like It Or Not') 64-bit
Writing library : libebml v1.3.6 + v1.4.9

Video
ID : 1
Format : AVC
Format/Info : Advanced Video Codec
Format profile : [email protected]
Format settings : CABAC / 9 Ref Frames
Format settings, CABAC : Yes
Format settings, ReFrames : 9 frames
Codec ID : V_MPEG4/ISO/AVC
Duration : 1 h 18 min
Bit rate : 3 097 kb/s
Width : 1 280 pixels
Height : 690 pixels
Display aspect ratio : 1.85:1
Frame rate mode : Constant
Frame rate : 23.976 (24000/1001) FPS
Color space : YUV
Chroma subsampling : 4:2:0
Bit depth : 8 bits
Scan type : Progressive
Bits/(Pixel*Frame) : 0.146
Stream size : 1.70 GiB (89%)
Title : Альоша Попович і Тугарин Змій
Writing library : core 120 r2164 da19765
Encoding settings : cabac=1 / ref=9 / deblock=1:-1:-1 / analyse=0x3:0x113 / me=umh / subme=11 / psy=1 / psy_rd=0.70:0.00 / mixed_ref=1 / me_range=32 / chroma_me=1 / trellis=2 / 8x8dct=1 / cqm=0 / deadzone=21,11 / fast_pskip=0 / chroma_qp_offset=-2 / threads=6 / sliced_threads=0 / nr=0 / decimate=0 / interlaced=0 / bluray_compat=0 / constrained_intra=0 / bframes=8 / b_pyramid=2 / b_adapt=2 / b_bias=0 / direct=3 / weightb=1 / open_gop=0 / weightp=2 / keyint=250 / keyint_min=23 / scenecut=40 / intra_refresh=0 / rc_lookahead=60 / rc=2pass / mbtree=1 / bitrate=3097 / ratetol=1.0 / qcomp=0.70 / qpmin=0 / qpmax=69 / qpstep=4 / cplxblur=20.0 / qblur=0.5 / vbv_maxrate=50000 / vbv_bufsize=62500 / nal_hrd=none / ip_ratio=1.10 / aq=2:0.70
Default : Yes
Forced : No
Color range : Limited
Matrix coefficients : BT.709

Audio #1
ID : 2
Format : AC-3
Format/Info : Audio Coding 3
Commercial name : Dolby Digital
Codec ID : A_AC3
Duration : 1 h 18 min
Bit rate mode : Constant
Bit rate : 192 kb/s
Channel(s) : 2 channels
Channel layout : L R
Sampling rate : 48.0 kHz
Frame rate : 31.250 FPS (1536 SPF)
Bit depth : 16 bits
Compression mode : Lossy
Stream size : 108 MiB (6%)
Title : DUB | ICTV
Language : Ukrainian
Service kind : Complete Main
Default : Yes
Forced : Yes

Audio #2
ID : 3
Format : AC-3
Format/Info : Audio Coding 3
Commercial name : Dolby Digital
Codec ID : A_AC3
Duration : 1 h 18 min
Bit rate mode : Constant
Bit rate : 192 kb/s
Channel(s) : 2 channels
Channel layout : L R
Sampling rate : 48.0 kHz
Frame rate : 31.250 FPS (1536 SPF)
Bit depth : 16 bits
Compression mode : Lossy
Stream size : 108 MiB (6%)
Title : DUB | трк Україна
Language : Ukrainian
Service kind : Complete Main
Default : No
Forced : No
Скріншоти:


Запис/зведення: sergiyko


Срібний реліз (на рейтинг впливає 50% завантаженого)
 Трекер:    Зареєстрований   

Завантажити / скачати мультфільм українською



відео для новачків



 Зареєстрований:   2018-12-27 18:53
 Розмір:   1.92 GB 
 Оцінка мультфільму:   4/10 (Голосів: 45)
   
І-р 
Свій


З нами з: 21.07.16
Востаннє: 03.03.21
Повідомлень: 145

2018-01-01 19:29  
У цьому мультику москалі сміються з українців. Знаково й те, що переклад і озвучку зробив промосковський канал.
PaBLo.Che 
VIP


З нами з: 20.04.09
Востаннє: 03.03.21
Повідомлень: 290

2018-01-02 12:01  
І-р
Та воно взагалі люто промосковське.
Нащо воно тут.

Siegfried 
VIP


З нами з: 01.11.11
Востаннє: 04.03.21
Повідомлень: 344

2018-01-02 18:01  
Найпарадоксальніше те, що ця кацапетівська лайномультпропаганда викладається на сайті, в шапці якого гордо написано "першоджерело УКРАЇНСЬКОГО в інтернеті" !
PaBLo.Che 
VIP


З нами з: 20.04.09
Востаннє: 03.03.21
Повідомлень: 290

2018-01-03 09:51  
Siegfried написано:
кацапетівська лайномультпропаганда

+
і найпарадоксальніше — це лайно у нас дивляться.

piznajko 
Відео Гуртом - субтитрування
Відео Гуртом - субтитрування


З нами з: 24.02.09
Востаннє: 17.11.20
Повідомлень: 2196

2018-01-08 06:53  
Будете робити SD версію?
Electroz 
Відео Гуртом - підтримка та поширення
Відео Гуртом - підтримка та поширення


З нами з: 18.09.14
Востаннє: 04.03.21
Повідомлень: 4332

2018-01-08 09:03  
strannikosho_trek 
Частий відвідувач


З нами з: 29.05.14
Востаннє: 03.03.21
Повідомлень: 33

2018-01-15 18:55  
Геть кацапське лайно з українських екранів!
sergiyko.5 
Забанено
Забанено


З нами з: 25.02.16
Востаннє: 29.10.20
Повідомлень: 3648

2018-12-27 18:54  
Додав доріжку від ICTV. Торент оновлено.
-Star-Lord- 
VIP


З нами з: 09.08.18
Востаннє: 04.03.21
Повідомлень: 2427

2018-12-27 21:33  
strannikosho_trek написано:
Геть кацапське лайно з українських екранів!

Підтримую!

damon1991.matt 
Забанено
Забанено


З нами з: 12.01.17
Востаннє: 28.12.18
Повідомлень: 8

2018-12-28 07:24  
ви жителів півдня і сходу України взагалі за людей не вважаєте?
PaBLo.Che 
VIP


З нами з: 20.04.09
Востаннє: 03.03.21
Повідомлень: 290

2018-12-28 07:56  
damon1991.matt
Вони ще "Пєрвий канал расіцково тілівідєнія" дивляться. То яке має бути до них відношення?

Атлет 
Попереджень: 1
Попереджень: 1 


З нами з: 26.07.18
Востаннє: 02.03.21
Повідомлень: 177

2018-12-28 14:32  
Принципово - не буду вантажити. ICTV- Озвученню нема більш роботи? Ну озвучили "Добриню" - встановили історичну справедливість (додали герою сексуального голосу) але ж для цього героя потрібен голос "Жиглова", який помер у Київських муках...
Не для всіх громадян кремля потрібен ошийник стеження для того шоб в чужій державі не блукати!

damon1991.matt 
Забанено
Забанено


З нами з: 12.01.17
Востаннє: 28.12.18
Повідомлень: 8

2018-12-28 14:43  
боже мой... ще не вмерла Украина, но с такими громадянами уже скоро...


п.п.2.1, 2.6, 2.9, видано igor911
PaBLo.Che 
VIP


З нами з: 20.04.09
Востаннє: 03.03.21
Повідомлень: 290

2018-12-28 14:53  
damon1991.matt
Хавай і далі кацапське лайно і не жалійся, що живеш в лайні.

damon1991.matt 
Забанено
Забанено


З нами з: 12.01.17
Востаннє: 28.12.18
Повідомлень: 8

2018-12-28 17:40  
PaBLo.Che
кто бы говорил... уж Украина сейчас точно не процветает...



п.2.1, видано igor911
Ваш часовий пояс: GMT + 2 Години

Нова тема   Відповісти