Кастельванія (серії 01-04 з 4) / Castlevania (2017) 1080p Ukr/Eng | sub Ukr

Нові коментарі

Нова тема   Відповісти
Автор Повідомлення
ihabi 
VIP


З нами з: 01.03.13
Востаннє: 23.05.19
Повідомлень: 292

2017-12-31 23:43  
Кастельванія (серії 01-04 з 4) / Castlevania (2017) 1080p Ukr/Eng | sub Ukr

Кастельванія (серії 01-04 з 4) / Castlevania (2017) 1080p Ukr/Eng | sub Ukr


Жанр: жахи, анімація
Країна: США



Кінокомпанія: Frederator Studios, Mua Film, Powerhouse Animation Studios, Project 51 Productions, Shankar Animation
Режисер: Сем Дітс
Ролі озвучують: Річард Армітедж, Джеймс Келліс, Грем Мактавіш, Метт Фрюер та ін.

Сюжет:
У Валахії в 1455 році молода жінка на ім'я Ліза, яка хоче бути доктором, шукає Влада Дракулу Цепеша, вампіра з передовими науковими знаннями. Заінтригований її мужністю та амбіціями, Дракула погоджується навчити її усьому, а вона, в свою чергу, пропонує, допомогти йому відновити зв'язок з людьми. Серіал розповідає про Тревора Бельмонта, який захищає Валахію від Дракули та його прибічників.


Тривалість: 1 серія: 25:03 (цілком серій: 4)
Перелік серій
1. Відьма
2. Некрополіс
3. Лабіринт
4. Монумент
Якість:
Відео:
кодек:
розмір кадру: 1920 х 1080
бітрейт: 6 923 кб/с

Аудіо #1:
мова: українська
переклад: багатоголосий закадровий
кодек: 2.0
бітрейт: 718 кб/с

Аудіо #2:
мова: українська
переклад: багатоголосий закадровий
кодек: 5.1
бітрейт: 448 кб/с

Аудіо #3:
мова: англійська
переклад: оригінал
кодек: 5.1
бітрейт: 384 кб/с

Субтитри:
мова: українська
тип: програмні (м'які) (написи)
формат: *.

Субтитри:
мова: українська
тип: програмні (м'які)
формат: *.

Переклад і озвучення виконано:
Переклад: Kallaider
Текст читали: Swift, ihabi, Andrew, Riddick, Korzhik, Enelira, Lis, Arutem, Rina Lavrysh, Konstantinych, Lomaev, May
Робота зі звуком: ihabi
Постер: Kisske

Джерело: MelodicVoiceStudio
Info
Format :
Format version : Version 4 / Version 2
File size : 1.49 GiB
Duration : 25 min 4 s
Overall bit rate mode : Variable
Overall bit rate : 8 483 kb/s
Encoded date : UTC 2017-12-31 18:46:33
Writing application : v19.0.0 ('Brave Captain') 64-bit
Writing library : libebml v1.3.5 + v1.4.8
Cover : Yes
Attachments : times.ttf / ANTQUAB.TTF / cover.png

Video
ID : 1
Format : AVC
Format/Info : Advanced Video Codec
Format profile : [email protected]
Format settings : CABAC / 4 Ref Frames
Format settings, CABAC : Yes
Format settings, ReFrames : 4 frames
Codec ID : V_MPEG4/ISO/AVC
Duration : 25 min 3 s
Bit rate : 6 923 kb/s
Width : 1 920 pixels
Height : 1 080 pixels
Display aspect ratio : 16:9
Frame rate mode : Constant
Frame rate : 23.976 (24000/1001) FPS
Color space : YUV
Chroma subsampling : 4:2:0
Bit depth : 8 bits
Scan type : Progressive
Bits/(Pixel*Frame) : 0.139
Stream size : 1.21 GiB (82%)
Writing library : core 152 r2851 ba24899
Encoding settings : cabac=1 / ref=4 / deblock=1:1:1 / analyse=0x3:0x113 / me=umh / subme=8 / psy=1 / psy_rd=1.00:0.15 / mixed_ref=1 / me_range=16 / chroma_me=1 / trellis=2 / 8x8dct=1 / cqm=0 / deadzone=21,11 / fast_pskip=0 / chroma_qp_offset=-2 / threads=12 / lookahead_threads=2 / sliced_threads=0 / nr=0 / decimate=1 / interlaced=0 / bluray_compat=0 / constrained_intra=0 / bframes=3 / b_pyramid=2 / b_adapt=1 / b_bias=0 / direct=3 / weightb=1 / open_gop=0 / weightp=2 / keyint=240 / keyint_min=23 / scenecut=40 / intra_refresh=0 / rc_lookahead=50 / rc=crf / mbtree=1 / crf=17.0 / qcomp=0.60 / qpmin=0 / qpmax=69 / qpstep=4 / ip_ratio=1.40 / aq=3:0.80
Language : English
Default : Yes
Forced : No

Audio #1
ID : 2
Format :
Format/Info : Free Lossless Audio Codec
Codec ID : A_FLAC
Duration : 25 min 3 s
Bit rate mode : Variable
Bit rate : 718 kb/s
Channel(s) : 2 channels
Channel positions : Front: L R
Sampling rate : 48.0 kHz
Frame rate : 11.719 FPS (4096 SPF)
Bit depth : 16 bits
Stream size : 129 MiB (8%)
Title : MVS 2.0
Writing library : libFLAC 20080709 (UTC 2008-07-09)
Language : Ukrainian
Default : Yes
Forced : Yes

Audio #2
ID : 3
Format : AC-3
Format/Info : Audio Coding 3
Codec ID : A_AC3
Duration : 25 min 3 s
Bit rate mode : Constant
Bit rate : 448 kb/s
Channel(s) : 6 channels
Channel positions : Front: L C R, Side: L R, LFE
Sampling rate : 48.0 kHz
Frame rate : 31.250 FPS (1536 SPF)
Bit depth : 16 bits
Compression mode : Lossy
Stream size : 80.3 MiB (5%)
Title : MVS 5.1
Service kind : Complete Main
Default : No
Forced : No

Audio #3
ID : 4
Format : AC-3
Format/Info : Audio Coding 3
Codec ID : A_AC3
Duration : 25 min 4 s
Bit rate mode : Constant
Bit rate : 384 kb/s
Channel(s) : 6 channels
Channel positions : Front: L C R, Side: L R, LFE
Sampling rate : 48.0 kHz
Frame rate : 31.250 FPS (1536 SPF)
Bit depth : 16 bits
Compression mode : Lossy
Stream size : 68.9 MiB (5%)
Title : ENG 5.1
Language : English
Service kind : Complete Main
Default : No
Forced : No

Text #1
ID : 5
Format :
Codec ID : S_TEXT/
Codec ID/Info : Advanced Sub Station Alpha
Duration : 25 min 3 s
Bit rate : 59 b/s
Count of elements : 11
Compression mode : Lossless
Stream size : 11.0 KiB (0%)
Title : Forced
Language : Ukrainian
Default : Yes
Forced : Yes

Text #2
ID : 6
Format :
Codec ID : S_TEXT/
Codec ID/Info : Advanced Sub Station Alpha
Duration : 25 min 3 s
Bit rate : 173 b/s
Count of elements : 285
Compression mode : Lossless
Stream size : 31.9 KiB (0%)
Title : Kallaider
Language : Ukrainian
Default : No
Forced : No
Скріншоти





Особиста оцінка: 9 - давно не бачив настільки якісне кіно



Авторський реліз (завантажувати можна без реєстрації)
 Трекер:    Зареєстрований   

Завантажити / скачати мультфільм українською



відео для новачків



 Зареєстрований:   2017-12-31 23:43
 Розмір:   4.18 GB 
 Оцінка мультсеріалу:   7.9/10 (Голосів: 11)
   
don pedro 
Попереджень: 2
Попереджень: 2 


З нами з: 29.06.11
Востаннє: 23.05.19
Повідомлень: 13658

2018-01-01 00:01  
Диво-дивне: мальовані люди з нормальними очима.
EvGaS 
Відео Гуртом - субтитрування
Відео Гуртом - субтитрування


З нами з: 27.02.12
Востаннє: 30.04.19
Повідомлень: 5678

2018-01-01 08:02  
don pedro, та Ви, схоже, анімаційний расист, Доне. Happy
(поглянув світлини — типові для аніме моделі людей та облич, насправді, одні з найпоширеніших способів змалювання: якщо не читати про країну походження, то повна імітація япономультиків, і не відрізниш, що ще (технічно) не аніме, і про нього можна стандартно пожартувати про очиська)

don pedro 
Попереджень: 2
Попереджень: 2 


З нами з: 29.06.11
Востаннє: 23.05.19
Повідомлень: 13658

2018-01-01 08:15  
EvGaS написано:
та Ви, схоже, анімаційний расист, Доне.

Я правдоруб.

EvGaS 
Відео Гуртом - субтитрування
Відео Гуртом - субтитрування


З нами з: 27.02.12
Востаннє: 30.04.19
Повідомлень: 5678

2018-01-01 09:16  
don pedro написано:
Я правдоруб.

Але це ніяк не завадить бути одразу обома водночас. Tongue out (1)

don pedro 
Попереджень: 2
Попереджень: 2 


З нами з: 29.06.11
Востаннє: 23.05.19
Повідомлень: 13658

2018-01-01 09:28  
EvGaS
А ще я не помітив у цьому мультику дівчаток у міні-спідничках з двометровими мечами і юних нігілістів з фарбованим волоссям. Треба дивитись!

EvGaS 
Відео Гуртом - субтитрування
Відео Гуртом - субтитрування


З нами з: 27.02.12
Востаннє: 30.04.19
Повідомлень: 5678

2018-01-01 11:49  
don pedro написано:
А ще я не помітив у цьому мультику дівчаток у міні-спідничках з двометровими мечами і юних нігілістів з фарбованим волоссям. Треба дивитись!

Тобто, як справжньому анімаційному расисту, Вам треба довести зверхність цього мультфільму над піджанром мультиплікації аніме за такими параметрами:

немає:
велитенських очиськ
дівчаток у міні-спідничках
двометрових мечів (у хирлявих школярок)
юних нігілістів
фарбованого волосся

є:
жахи
містика
фентезі
минуле
упирі (зокрема, Дракула власною особою)
фамфадаль
попихачі
містяни (злої юрби?)
обернення (перетворення)
священники
червоні очі
замки
вогонь
вила
гострі вуха
квіточки
корисне хутро

Спробуємо задовільнити Дона за такими запитами.

Додано через 8 хвилин 16 секунд:
18+
Додано через 41 хвилину 36 секунд:

Ну й з не згаданих у відео Дону можна ще порекомендувати схожі мультфільми (відповідно до його запитів про виключення певних рис):

Devil May Cry
Claymore
NightWalker
Devilman Lady
Ninja Scroll
Fate/Zero
The Twelve Kingdoms
Bayonetta: Bloody Fate
Vampire Princess Miyu
Плач ягняти
Легенда про Місячну принцесу
Black Blood Brothers
Demon Prince Enma
Drifters

Це все переважно кличуть піджанром «Дарк Фентезі».

Arch Enemy 
VIP


З нами з: 30.08.12
Востаннє: 22.05.19
Повідомлень: 1654

2018-01-01 15:20  
don pedro написано:
Диво-дивне: мальовані люди з нормальними очима.

don pedro написано:
А ще я не помітив у цьому мультику дівчаток у міні-спідничках з двометровими мечами і юних нігілістів з фарбованим волоссям. Треба дивитись!

Це все мабуть тому, що це не аніме, а мультфільм)))
Всі поперешні релізи цієї шляпи лежать у Мультфільмах, а цей мабуть трохи заблукав)))

hetzendorf 
Попереджень: 2
Попереджень: 2 


З нами з: 23.07.15
Востаннє: 24.05.19
Повідомлень: 2166

2018-01-02 13:41  
don pedro написано:
Диво-дивне: мальовані люди з нормальними очима.

Пане Петре, от нащо тоді Ви качали Міядзакі, якщо ніц із того не переглянули? >_<
Watashi kininarimasu!

don pedro написано:
А ще я не помітив у цьому мультику дівчаток у міні-спідничках з двометровими мечами і юних нігілістів з фарбованим волоссям.

Сказав чувак, що тащиться від суперпуперклоунівхероїв у яскравих трусах поверху строкатих трико з безглуздо-пафосними плащиками ^__^
EvGaS написано:
та Ви, схоже, анімаційний расист, Доне

Газику, ну от яким боком сюди расизм? (Уже мовчу, що ти так кажеш, нібито це щось погане >_<) Невже ніяк не можна обійтися без пташиної мови толерастів? Газику, припини вже тягти до рота всіляку гидоту! X_X

bot 
робот


З нами з: 30.09.07
Востаннє: 26.05.05
Повідомлень: 21377

2018-03-05 15:11  
Тему перенесено з Аніме до форуму Мультсеріали в HD


Dark Invader

andros507 
VIP


З нами з: 15.09.10
Востаннє: 24.05.19
Повідомлень: 301

2018-10-27 09:31  
Чи буде продовження?
Косячок справжній 
VIP


З нами з: 29.02.12
Востаннє: 24.05.19
Повідомлень: 1133

2019-05-20 14:41  
Забагато дурні на 4 серії.

andros507 написано:
Чи буде продовження?

https://toloka.to/t96030

Ваш часовий пояс: GMT + 2 Години

Нова тема   Відповісти