Три богатирі і Шамаханська цариця / Три богатыря и Шамаханская царица (2010) 720p

Нові коментарі

Нова тема   Відповісти
Автор Повідомлення
sergiyko.5 
VIP


З нами з: 25.02.16
Востаннє: 26.02.20
Повідомлень: 2954

2017-12-31 21:00  
Три богатирі і Шамаханська цариця / Три богатыря и Шамаханская царица (2010) 720p

Три богатирі і Шамаханська цариця / Три богатыря и Шамаханская царица (2010) 720p

Жанр: дитячий, комедія, пригодницький
Країна: Росія
Кінокомпанія: Galaxy Vision, Melnitsa Animation Studio
Режисер: Сергій Глезін
Ролі озвучують: Дмитро Биковський-Ромашов (Ілля Муромець) , Валерій Соловйов (Добриня Микитич) , Олег Куликович (Альоша Попович / Змій Горинич) , Сергій Маковецький (князь Київський) , Анна Геллер (Шамаханська цариця) , Дмитро Висоцький (кінь Юлій) , Костянтин Бронзит (ворон) , Марія Цвєткова-Овсяннікова (Оленка) , Олена Шульман (Настасья) , Лія Медведєва (Любава) , Ігор Шибанов (радник) , Анатолій Петров (Тихон / сенсей)

Сюжет:
Колись перша красуня східних земель Шамаханська цариця мріє повернути собі втрачену молодість і красу, для чого їй необхідно окропити Дерево молодості сльозами тисячі красунь. Але всіх красунь, які були її підданими, вона вже давним-давно знищила, бо не любила вона їх і хотіла бути єдиною красунею у своєму царстві. Тоді помічник цариці — Ворон підказує їй самий простий план, де добути жіночі сльози. Потрібно використовуючи магічний погляд цариці, закохати в себе Князя Київського, заволодіти Руссю і змусити плакати всіх її дівчат-красунь. Легендарна Шамаханська цариця зачаровує Київського князя, і він закохується в неї, втрачаючи глузд. Але тут у справу втручаються богатирі Альоша Попович, Ілля Муромець, Добриня Микитич, а також вже добре знайомі глядачам герої: кінь Юлій, Змій Горинич, бабуся і дід Тихон. Справа, на думку богатирів, нескладна, а провітритися не заважає. Але все не так просто як здається...




Тривалість: 01:16:32
Якість:

Відео: кодек: розмір кадру: 1280 х 720 бітрейт: 2900 кб/с
Аудіо: мова: українська переклад: професійний дубльований кодек: 2.0 бітрейт: 192 кб/с
Джерело озвучення:
Info
General
Unique ID : 200060252874916432269338531297052729682 (0x96823402E80AFD893772CCBD80422152)
Complete name : D:\Torrents\MULT\Try.Bogatyri.i.Shamakhanska.Tsarytsja.2010.720p..
Format :
Format version : Version 4 / Version 2
File size : 1.65 GiB
Duration : 1 h 16 min
Overall bit rate : 3 092 kb/s
Movie name : Три богатирі і Шамаханська цариця 720p by sergiyko
Encoded date : UTC 2017-12-31 19:52:54
Writing application : v19.0.0 ('Brave Captain') 64-bit
Writing library : libebml v1.3.5 + v1.4.8

Video
ID : 1
Format : AVC
Format/Info : Advanced Video Codec
Format profile : [email protected]
Format settings : CABAC / 9 Ref Frames
Format settings, CABAC : Yes
Format settings, ReFrames : 9 frames
Codec ID : V_MPEG4/ISO/AVC
Duration : 1 h 16 min
Bit rate : 2 898 kb/s
Width : 1 280 pixels
Height : 720 pixels
Display aspect ratio : 16:9
Frame rate mode : Constant
Frame rate : 24.000 FPS
Color space : YUV
Chroma subsampling : 4:2:0
Bit depth : 8 bits
Scan type : Progressive
Bits/(Pixel*Frame) : 0.131
Stream size : 1.55 GiB (94%)
Title : Три богатирі і Шамаханська цариця
Writing library : core 120 r2164 da19765
Encoding settings : cabac=1 / ref=9 / deblock=1:-1:-1 / analyse=0x3:0x113 / me=umh / subme=11 / psy=1 / psy_rd=0.70:0.00 / mixed_ref=1 / me_range=32 / chroma_me=1 / trellis=2 / 8x8dct=1 / cqm=0 / deadzone=21,11 / fast_pskip=0 / chroma_qp_offset=-2 / threads=6 / sliced_threads=0 / nr=0 / decimate=0 / interlaced=0 / bluray_compat=0 / constrained_intra=0 / bframes=8 / b_pyramid=2 / b_adapt=2 / b_bias=0 / direct=3 / weightb=1 / open_gop=0 / weightp=2 / keyint=250 / keyint_min=24 / scenecut=40 / intra_refresh=0 / rc_lookahead=60 / rc=2pass / mbtree=1 / bitrate=2898 / ratetol=1.0 / qcomp=0.70 / qpmin=0 / qpmax=69 / qpstep=4 / cplxblur=20.0 / qblur=0.5 / vbv_maxrate=50000 / vbv_bufsize=62500 / nal_hrd=none / ip_ratio=1.10 / aq=2:0.70
Language : Russian
Default : Yes
Forced : No
Color range : Limited
Matrix coefficients : BT.709

Audio
ID : 2
Format : AC-3
Format/Info : Audio Coding 3
Codec ID : A_AC3
Duration : 1 h 16 min
Bit rate mode : Constant
Bit rate : 192 kb/s
Channel(s) : 2 channels
Channel positions : Front: L R
Sampling rate : 48.0 kHz
Frame rate : 31.250 FPS (1536 SPF)
Bit depth : 16 bits
Compression mode : Lossy
Stream size : 105 MiB (6%)
Title : DUB 2ch | ICTV
Language : Ukrainian
Service kind : Complete Main
Default : Yes
Forced : Yes
Скріншоти:


Запис/зведення: sergiyko


 Трекер:    Зареєстрований   

Завантажити / скачати мультфільм українською



відео для новачків



 Зареєстрований:   2017-12-31 21:56
 Розмір:   1.65 GB 
 Оцінка мультфільму:   5.2/10 (Голосів: 31)
   
11FrYkT 
Модератор відео


З нами з: 20.02.11
Востаннє: 26.02.20
Повідомлень: 6577

2018-01-01 20:10  
sergiyko.5 , тут з тривалості 01:13:40 укр мова и рос?
sergiyko.5 
VIP


З нами з: 25.02.16
Востаннє: 26.02.20
Повідомлень: 2954

2018-01-01 20:17  
11FrYkT
В титрах вставлена пісня українською мовою з самого мультфільма.

Ваш часовий пояс: GMT + 2 Години

Нова тема   Відповісти