Іван Княженко і Сірий Вовк 1,2 / Иван Царевич и Серый Волк 1,2 (2011-2013) 720p-mini

Нові коментарі

Нова тема   Відповісти
Автор Повідомлення
sergiyko.5 
Забанено
Забанено


З нами з: 25.02.16
Востаннє: 29.10.20
Повідомлень: 3648

2017-12-31 18:22  
Іван Княженко і Сірий Вовк / Іван Княженко і Сірий Вовк 2 (2011-2013) 720p-mini

Іван Княженко і Сірий Вовк 1,2 / Иван Царевич и Серый Волк 1,2 (2011-2013) 720p-mini

Жанр: пригодницький, дитячий, комедія
Країна: Росія
Режисер: Володимир Торопчин
Актори: Микита Єфремов, Тетяна Буніна, Артур Смольянинов, Іван Охлобистін, Віктор Сухоруков, Олександр Боярський, Михайло Боярськи, Олена Шульман, Христина Асмус, Лія Ахеджакова, Сергій Русскін, Сергій Гармаш, Олег Куликович, Костянтин Бронзит, Анатолій Петров, Леньков Олександр

Сюжет:
Автори знаменитої богатирської трилогії знову порадують глядачів новими казковими пригодами, де головними персонажами виступають герої знаменитих російських народних казок нового стилю.

Незабаром після одруження на Василисі, Іван у компанії Вовка з головою занурюється в роботу по зміцненню кордонів Тридев'ятого царства, з ранку до вечора пропадаючи на службі.




Тривалість: 01:25:58 + 01:12:37
Якість: 720p(№1) 720p-mini(№2)

Відео #1: кодек: розмір кадру: 1280 х 690 бітрейт: 2740 кб/с
Відео #2: кодек: розмір кадру: 1280 х 720 бітрейт: 2400 кб/с
Аудіо: мова: українська переклад: професійний дубльований кодек: 2.0 бітрейт: 192 кб/с
Джерело озвучення:
Про файл:
General
Unique ID : 156678969451767613755788735314624316920 (0x75DF459ABBAA3ED2E4489266120905F8)
Complete name : D:\Torrents\MULT\Ivan Knyazhenko y Siryy Vovk 1-2 720p \Ivan.Knyazhenko.y.Siryy.Vovk.2011.720p..
Format :
Format version : Version 4 / Version 2
File size : 1.76 GiB
Duration : 1 h 25 min
Overall bit rate : 2 934 kb/s
Movie name : Ivan Knyazhenko y Siryy Vovk 2011 720p by sergiyko
Encoded date : UTC 2018-01-01 08:02:12
Writing application : v19.0.0 ('Brave Captain') 64-bit
Writing library : libebml v1.3.5 + v1.4.8
Attachments : Ivan.I.Serij.Volk.500.jpg

Video
ID : 1
Format : AVC
Format/Info : Advanced Video Codec
Format profile : [email protected]
Format settings : CABAC / 9 Ref Frames
Format settings, CABAC : Yes
Format settings, ReFrames : 9 frames
Codec ID : V_MPEG4/ISO/AVC
Duration : 1 h 25 min
Bit rate : 2 740 kb/s
Width : 1 280 pixels
Height : 690 pixels
Display aspect ratio : 1.85:1
Frame rate mode : Constant
Frame rate : 23.976 (24000/1001) FPS
Color space : YUV
Chroma subsampling : 4:2:0
Bit depth : 8 bits
Scan type : Progressive
Bits/(Pixel*Frame) : 0.129
Stream size : 1.65 GiB (93%)
Title : Іван Княженко і Сірий Вовк
Writing library : core 120 r2164 da19765
Encoding settings : cabac=1 / ref=9 / deblock=1:-1:-1 / analyse=0x3:0x113 / me=umh / subme=11 / psy=1 / psy_rd=0.80:0.00 / mixed_ref=1 / me_range=32 / chroma_me=1 / trellis=2 / 8x8dct=1 / cqm=0 / deadzone=21,11 / fast_pskip=0 / chroma_qp_offset=-2 / threads=6 / sliced_threads=0 / nr=0 / decimate=0 / interlaced=0 / bluray_compat=0 / constrained_intra=0 / bframes=8 / b_pyramid=2 / b_adapt=2 / b_bias=0 / direct=3 / weightb=1 / open_gop=0 / weightp=2 / keyint=250 / keyint_min=23 / scenecut=40 / intra_refresh=0 / rc_lookahead=60 / rc=2pass / mbtree=1 / bitrate=2740 / ratetol=1.0 / qcomp=0.70 / qpmin=0 / qpmax=69 / qpstep=4 / cplxblur=20.0 / qblur=0.5 / vbv_maxrate=50000 / vbv_bufsize=62500 / nal_hrd=none / ip_ratio=1.10 / aq=2:0.70
Language : Russian
Default : Yes
Forced : No
Color range : Limited
Matrix coefficients : BT.709

Audio
ID : 2
Format : AC-3
Format/Info : Audio Coding 3
Codec ID : A_AC3
Duration : 1 h 25 min
Bit rate mode : Constant
Bit rate : 192 kb/s
Channel(s) : 2 channels
Channel positions : Front: L R
Sampling rate : 48.0 kHz
Frame rate : 31.250 FPS (1536 SPF)
Bit depth : 16 bits
Compression mode : Lossy
Stream size : 118 MiB (7%)
Title : DUB | ICTV
Language : Ukrainian
Service kind : Complete Main
Default : Yes
Forced : No

Menu
00:00:00.000 : en:Chapter 1
00:08:19.916 : en:Chapter 2
00:15:17.041 : en:Chapter 3
00:22:17.419 : en:Chapter 4
00:29:20.925 : en:Chapter 5
00:36:09.500 : en:Chapter 6
00:45:12.918 : en:Chapter 7
00:53:30.790 : en:Chapter 8
01:00:45.433 : en:Chapter 9
01:06:53.134 : en:Chapter 10
01:14:10.988 : en:Chapter 11
01:21:09.656 : en:Chapter 12

General
Unique ID : 56373540630147821286371929497515371763 (0x2A692624AC14AB26D1C551B7A8BCACF3)
Complete name : D:\Torrents\MULT\Ivan Knyazhenko y Siryy Vovk 1-2 720p \Ivan.Knyazhenko.y.Siryy.Vovk.2.2013.720p..
Format :
Format version : Version 4 / Version 2
File size : 1.32 GiB
Duration : 1 h 12 min
Overall bit rate : 2 594 kb/s
Movie name : Ivan Knyazhenko y Siryy Vovk 2 2013 720p by sergiyko
Encoded date : UTC 2018-01-01 08:01:20
Writing application : v19.0.0 ('Brave Captain') 64-bit
Writing library : libebml v1.3.5 + v1.4.8

Video
ID : 1
Format : AVC
Format/Info : Advanced Video Codec
Format profile : [email protected]
Format settings : CABAC / 8 Ref Frames
Format settings, CABAC : Yes
Format settings, ReFrames : 8 frames
Codec ID : V_MPEG4/ISO/AVC
Duration : 1 h 12 min
Bit rate : 2 400 kb/s
Width : 1 280 pixels
Height : 720 pixels
Display aspect ratio : 16:9
Frame rate mode : Constant
Frame rate : 24.000 FPS
Color space : YUV
Chroma subsampling : 4:2:0
Bit depth : 8 bits
Scan type : Progressive
Bits/(Pixel*Frame) : 0.109
Stream size : 1.22 GiB (93%)
Title : Іван Княженко і Сірий Вовк 2
Writing library : core 142 r2431+42 c69a006 tMod [[email protected] X86]
Encoding settings : cabac=1 / ref=8 / deblock=1:-2:-2 / analyse=0x3:0x113 / me=tesa / subme=11 / psy=1 / fade_compensate=0.00 / psy_rd=0.80:0.00 / mixed_ref=1 / me_range=64 / chroma_me=1 / trellis=2 / 8x8dct=1 / cqm=0 / deadzone=21,11 / fast_pskip=0 / chroma_qp_offset=-2 / threads=16 / lookahead_threads=4 / sliced_threads=0 / nr=0 / decimate=0 / interlaced=0 / bluray_compat=0 / constrained_intra=0 / fgo=0 / bframes=12 / b_pyramid=2 / b_adapt=2 / b_bias=0 / direct=3 / weightb=1 / open_gop=0 / weightp=2 / keyint=240 / keyint_min=24 / scenecut=40 / intra_refresh=0 / rc_lookahead=240 / rc=2pass / mbtree=0 / bitrate=2400 / ratetol=1.0 / qcomp=0.70 / qpmin=0:0:0 / qpmax=69:69:69 / qpstep=4 / cplxblur=20.0 / qblur=0.5 / vbv_maxrate=50000 / vbv_bufsize=62500 / nal_hrd=none / filler=0 / ip_ratio=1.35 / pb_ratio=1.25 / aq=4:0.80 / aq-sensitivity=10.00 / aq-factor=1.00:1.00:1.00 / aq2=0 / aq3=0
Language : Russian
Default : Yes
Forced : No

Audio
ID : 2
Format : AC-3
Format/Info : Audio Coding 3
Codec ID : A_AC3
Duration : 1 h 12 min
Bit rate mode : Constant
Bit rate : 192 kb/s
Channel(s) : 2 channels
Channel positions : Front: L R
Sampling rate : 48.0 kHz
Frame rate : 31.250 FPS (1536 SPF)
Bit depth : 16 bits
Compression mode : Lossy
Stream size : 99.7 MiB (7%)
Title : DUB | ICTV
Language : Ukrainian
Service kind : Complete Main
Default : Yes
Forced : No

Menu
00:00:00.000 : en:Chapter 01
00:08:56.291 : en:Chapter 02
00:17:20.708 : en:Chapter 03
00:30:52.708 : en:Chapter 04
00:42:35.791 : en:Chapter 05
01:00:23.875 : en:Chapter 06
Скріншоти:



Запис/зведення: sergiyko


Бронзовий реліз (на рейтинг впливає 75% завантаженого)
 Трекер:    Зареєстрований   

Завантажити / скачати мультфільм українською



відео для новачків



 Зареєстрований:   2018-01-01 10:21
 Розмір:   3.08 GB 
 Оцінка мультфільму:   4.8/10 (Голосів: 33)
   
bot 
робот


З нами з: 30.09.07
Востаннє: 26.05.05
Повідомлень: 27266

2017-12-31 18:22  
Тему перенесено з Мультфільми в HD до форуму Анонси релізів


sergiyko.5

-_-B_E_N_D_E_R-_- 
Забанено
Забанено


З нами з: 09.01.14
Востаннє: 22.05.18
Повідомлень: 896

2017-12-31 18:53  
sergiyko.5
ти їх будеш зводити?

sergiyko.5 
Забанено
Забанено


З нами з: 25.02.16
Востаннє: 29.10.20
Повідомлень: 3648

2017-12-31 18:56  
я, зі своїх записів.
-_-B_E_N_D_E_R-_- 
Забанено
Забанено


З нами з: 09.01.14
Востаннє: 22.05.18
Повідомлень: 896

2017-12-31 18:58  
sergiyko.5Ок, тоді я небу зводити, можеш заодно і SD робити.
VIKTOtor 
Поважний учасник


З нами з: 02.01.12
Востаннє: 27.02.21
Повідомлень: 174

2017-12-31 20:28  
Це типу Іван Царєвіч?
-_-B_E_N_D_E_R-_- 
Забанено
Забанено


З нами з: 09.01.14
Востаннє: 22.05.18
Повідомлень: 896

2017-12-31 20:42  
VIKTOtor
Ні, це Княженко.

Patriot_ukr 
VIP


З нами з: 06.04.15
Востаннє: 10.02.21
Повідомлень: 2258

2018-01-01 01:21  
VIKTOtor, в аріґінальнам названії він Іван Царєвіч.
VIKTOtor 
Поважний учасник


З нами з: 02.01.12
Востаннє: 27.02.21
Повідомлень: 174

2018-01-01 03:58  
-_-B_E_N_D_E_R-_-
Так смішно що жесть просто

bot 
робот


З нами з: 30.09.07
Востаннє: 26.05.05
Повідомлень: 27266

2018-01-01 10:21  
Тему перенесено з Анонси релізів до форуму Мультфільми в HD


sergiyko.5

11FrYkT 
Модератор відео


З нами з: 20.02.11
Востаннє: 27.02.21
Повідомлень: 7152

2018-01-01 20:16  
sergiyko.5 , так як розміри кадру різні і 2 частина в міні, то будь ласка додайте ще 3 скріни 2 астини
sergiyko.5 
Забанено
Забанено


З нами з: 25.02.16
Востаннє: 29.10.20
Повідомлень: 3648

2018-01-01 20:22  
11FrYkT
Додав.

strannikosho_trek 
Частий відвідувач


З нами з: 29.05.14
Востаннє: 26.02.21
Повідомлень: 33

2018-01-06 19:14  
Це хто тут такий скромний, що не вказує країну походження мультфільму - мордор? І раз це лайно переведено на українську, можна дивитися, популяризуючи продукт країни-агресора? Не очікував від Толоки.
piznajko 
Відео Гуртом - субтитрування
Відео Гуртом - субтитрування


З нами з: 24.02.09
Востаннє: 17.11.20
Повідомлень: 2196

2018-01-14 05:02  
SD версія очікується?
u45 
Новенький


З нами з: 09.01.18
Востаннє: 03.02.18
Повідомлень: 1

2018-01-19 21:07  
strannikosho_trek
ну тут палка з двома кінцями!
моя малеча ще до того як кацапія стала кацапією дивилася цей мультик російською і тепер дилема або бути таким мудрим як ви і дивитися його в оригіналі або бути адекватним і завантажити його українською мовою.

bisivka 
Новенький


З нами з: 08.03.17
Востаннє: 14.02.21
Повідомлень: 22

2018-01-21 10:04  
Ну хіба мало муьтиків у світі? Навіщо тут це агресорське лайно (вибачте на слові)?
Ваш часовий пояс: GMT + 2 Години

Нова тема   Відповісти