У пошуках Жар-Птиці / Как поймать перо Жар-Птицы (2013) 720p

Нові коментарі

Нова тема   Відповісти
Автор Повідомлення
sergiyko.5 
Забанено
Забанено


З нами з: 25.02.16
Востаннє: 29.10.20
Повідомлень: 3648

2017-12-31 18:19  
У пошуках Жар-Птиці (2013) 720p

У пошуках Жар-Птиці / Как поймать перо Жар-Птицы (2013) 720p

Жанр: дитячий, комедія, фентезі
Країна: Росія
Кінокомпанія: Dereza, Кінокомпанія CTB
Режисер: Георгіий Гітіс, Вячеслав Плотніков

Сюжет:
Щоб виконати волю царя Берендея, на пошуки чудової Жар-птиці відправляється його молодший син Іван, зі своїм помічником – Сірим Вовком. Труднощі і небезпеки будуть підстерігати їх у цій нелегкій місії. Але добро в казках завжди перемагає…


Тривалість: 01:08:41
Якість:

Відео: кодек: розмір кадру: 1280 х 720 бітрейт: 4700 кб/с
Аудіо: мова: українська переклад: професійний дубльований кодек: 2.0 бітрейт: 192 кб/с
Джерело озвучення:
Про файл:
General
Unique ID : 82613370990357729996546403246936768884 (0x3E26C1A9F70AA2382B1763D719794174)
Complete name : D:\Torrents\MULT\Yak.upiymati.pero.Zhar-ptytsi.2013.720p..
Format :
Format version : Version 4 / Version 2
File size : 2.35 GiB
Duration : 1 h 8 min
Overall bit rate : 4 899 kb/s
Movie name : Yak upiymati pero Zhar-ptytsi 2013 720p by sergiyko
Encoded date : UTC 2017-12-31 19:27:15
Writing application : v19.0.0 ('Brave Captain') 64-bit
Writing library : libebml v1.3.5 + v1.4.8

Video
ID : 1
Format : AVC
Format/Info : Advanced Video Codec
Format profile : [email protected]
Format settings : CABAC / 9 Ref Frames
Format settings, CABAC : Yes
Format settings, ReFrames : 9 frames
Codec ID : V_MPEG4/ISO/AVC
Duration : 1 h 8 min
Bit rate : 4 705 kb/s
Width : 1 280 pixels
Height : 720 pixels
Display aspect ratio : 16:9
Frame rate mode : Constant
Frame rate : 24.000 FPS
Color space : YUV
Chroma subsampling : 4:2:0
Bit depth : 8 bits
Scan type : Progressive
Bits/(Pixel*Frame) : 0.213
Stream size : 2.26 GiB (96%)
Title : Як упіймати перо Жар-Птиці
Writing library : core 138 r2359+704+48 3f879a0 tMod [[email protected] X86_64]
Encoding settings : cabac=1 / ref=9 / deblock=1:-3:-3 / analyse=0x3:0x133 / me=umh / subme=11 / psy=1 / fade_compensate=0.00 / psy_rd=1.00:0.00 / mixed_ref=1 / me_range=32 / chroma_me=1 / trellis=2 / 8x8dct=1 / cqm=0 / deadzone=21,11 / fast_pskip=0 / chroma_qp_offset=-2 / threads=12 / lookahead_threads=2 / sliced_threads=0 / nr=0 / decimate=1 / interlaced=0 / bluray_compat=0 / constrained_intra=0 / fgo=0 / bframes=9 / b_pyramid=2 / b_adapt=2 / b_bias=0 / direct=1 / weightb=1 / open_gop=0 / weightp=2 / keyint=240 / keyint_min=24 / scenecut=40 / intra_refresh=0 / rc_lookahead=60 / rc=crf / mbtree=0 / crf=12.9000 / qcomp=0.60 / qpmin=0:0:0 / qpmax=69:69:69 / qpstep=4 / vbv_maxrate=50000 / vbv_bufsize=62500 / crf_max=0.0 / nal_hrd=none / ip_ratio=1.30 / pb_ratio=1.20 / aq=2:0.80 / aq-sensitivity=10.00 / aq-factor=1.00:1.00:1.00 / aq2=0 / aq3=0
Language : Russian
Default : Yes
Forced : No
Color range : Limited
Color primaries : BT.709
Transfer characteristics : BT.709
Matrix coefficients : BT.709

Audio
ID : 2
Format : AC-3
Format/Info : Audio Coding 3
Codec ID : A_AC3
Duration : 1 h 8 min
Bit rate mode : Constant
Bit rate : 192 kb/s
Channel(s) : 2 channels
Channel positions : Front: L R
Sampling rate : 48.0 kHz
Frame rate : 31.250 FPS (1536 SPF)
Bit depth : 16 bits
Compression mode : Lossy
Stream size : 94.3 MiB (4%)
Title : DUB 2ch | ICTV
Language : Ukrainian
Service kind : Complete Main
Default : Yes
Forced : No

Menu
00:00:00.000 : ru:Chapter 1
00:08:01.625 : ru:Chapter 2
00:17:43.166 : ru:Chapter 3
00:25:37.250 : ru:Chapter 4
00:34:31.916 : ru:Chapter 5
00:42:31.416 : ru:Chapter 6
00:50:48.208 : ru:Chapter 7
00:59:22.708 : ru:Chapter 8
Скріншоти:


Запис/зведення: sergiyko


 Трекер:    Зареєстрований   

Завантажити / скачати мультфільм українською



відео для новачків



 Зареєстрований:   2017-12-31 21:44
 Розмір:   2.35 GB 
 Оцінка мультфільму:   3.8/10 (Голосів: 21)
   
Інші релізи
bot 
робот


З нами з: 30.09.07
Востаннє: 26.05.05
Повідомлень: 27253

2017-12-31 21:44  
Тему перенесено з Анонси релізів до форуму Мультфільми в HD


sergiyko.5

khaled 
Поважний учасник


З нами з: 30.06.09
Востаннє: 25.02.21
Повідомлень: 191

2018-01-03 23:16  
Дивно, що модери не КРИЧАТЬ, давай оригінальну доріжку для хд крім озвучки. Як то в "забугряних" релізах. Мотивуючи правилами. Що за нелюбов до сусіда?
Віктор Багряний 
VIP


З нами з: 20.08.12
Востаннє: 24.02.21
Повідомлень: 399

2018-01-05 19:18  
khaled
Цитата:
Що за нелюбов до сусіда?

а за що такого сусіда любити?

khaled 
Поважний учасник


З нами з: 30.06.09
Востаннє: 25.02.21
Повідомлень: 191

2018-01-06 10:20  
Віктор Багряний написано:
а за що такого сусіда любити?

Я теж любов'ю до них не вирізняюся, проте правила є правила. Або дотримуватися в усюму або вилучити і насолоджуватися хаосом (і переконаний, розводити полеміку стверджуючи, що й в хаосі є певний порядок, закономірності не варто).

zhman 
VIP


З нами з: 21.12.14
Востаннє: 23.02.21
Повідомлень: 280

2018-01-15 19:52  
а відколи це на Толоці почали викладати как цапські фільми?? Свідомий вибір чи примусовий?
strannikosho_trek 
Частий відвідувач


З нами з: 29.05.14
Востаннє: 25.02.21
Повідомлень: 33

2018-01-16 19:26  
zhman
Я теж у шоці. Командування у ресурсу помінялося чи викупили на пню модераторів? Геть все москалівське! А поважним учасникам типу khaled - потяги у мордор ще ходять, там Ваше щастя, хоч і з Вашою типу нелюбов'ю.

khaled 
Поважний учасник


З нами з: 30.06.09
Востаннє: 25.02.21
Повідомлень: 191

2018-01-16 22:01  
Будете
strannikosho_trek написано:
поважним

тоді й поговоримо!

strannikosho_trek 
Частий відвідувач


З нами з: 29.05.14
Востаннє: 25.02.21
Повідомлень: 33

2018-01-18 21:25  
khaled
Боже збав стати таким, як Ви! Я з хребетних, а не хордових, щоб всяким мордорцям дупу заносити. Необхідно знати не мову ворога, а відстань до нього і поправку на вітер.

khaled 
Поважний учасник


З нами з: 30.06.09
Востаннє: 25.02.21
Повідомлень: 191

2018-01-19 18:09  
strannikosho_trek написано:
Боже збав стати таким, як Ви! Я з хребетних, а не хордових, щоб всяким мордорцям дупу заносити. Необхідно знати не мову ворога, а відстань до нього і поправку на вітер.

2.2, 2.6: https://toloka.to/faq.php#37.

strannikosho_trek, забагато говорите, шановний.

piznajko 
Відео Гуртом - субтитрування
Відео Гуртом - субтитрування


З нами з: 24.02.09
Востаннє: 17.11.20
Повідомлень: 2196

2018-12-26 01:51  
Канал переклав назву як "У пошуках Жар-Птиці". Додайте цю назву у назву бласка

див. тут про це https://ictv.ua/ua/uncategorized/kazkovyj-marafon-na-ictv/

EvGaS 
Відео Гуртом - субтитрування
Відео Гуртом - субтитрування


З нами з: 27.02.12
Востаннє: 31.07.19
Повідомлень: 5663

2018-12-26 05:13  
khaled написано:
Дивно, що модери не КРИЧАТЬ, давай оригінальну доріжку для хд крім озвучки. Як то в "забугряних" релізах.

А ще мультфільм пропагує в назві знущання з тварин і провокує дітей вискубувати пера з живих птахів. За це теж треба все заборонити. Wide grin

Пан sergiyko.5, здається, займається телеефірами, і ще питання, чи до них потрібно шукати не теледоріжку.
Якщо ж все ж є питання по перевірці релізу, то в мене є спочатку друге, хто його перевірив і не підписався, і перше — якщо вже кому так припікає про не таке оформлення, то можно спокійно дати релізу статус недооформленого, і спокійно роздавати. І тоді б подібне питання відсохло саме по собі як стара кора з сосни.

Хоча у даному випадку мені різко закортіло захищати тварин і висловитися за прибрання ворожого шкідливого впливу, який йде через апринципові телеканали, на яких мамцю рідну продадуть, як буде «замовлення» через власників.

Бо спочатку вам розкажуть підготовчі казки, а завтра поїдуть танки. Окупація починається з казки. Ну й інші цікаві слогани можете додумати.
(у кожному жарті — частина жарту)

Додано через 6 хвилин 14 секунд:

zhman написано:
Свідомий вибір чи примусовий?

Звісно що примусовий, за кожним релізером має хтось з маузером стояти. Wide grin

Просто люди заливають усе, що показує ТБ — ото й усього. Не їхня моральна відповідальність відсіювати контент за власним смаком.
Тому не лінкуйтесь й пишіть телеканалам замість форуму в інеті.

Додано через 5 хвилин 31 секунду:

Ото дійсно панам невдоволеним: створюйте тему скарг на телебачення, збирайте однодумців, і штурмуйте щораз скриньки телеканалів колективними й окремими скаргами про увесь аморальний вміст, який знайдете.

Ваш часовий пояс: GMT + 2 Години

Нова тема   Відповісти