Сім сестер / Seven Sisters / What Happened to Monday (2017) Remux 1080p Ukr/Eng | Sub Eng

Нові коментарі

Нова тема   Відповісти
Автор Повідомлення
IronBee 
Поважний учасник


З нами з: 08.02.10
Востаннє: 22.05.19
Повідомлень: 219

2017-12-31 17:50  
Сім сестер / Seven Sisters / What Happened to Monday (2017) Remux 1080p Ukr/Eng | Sub Eng

Сім сестер / Seven Sisters / What Happened to Monday (2017) Remux 1080p Ukr/Eng | Sub Eng


Жанр: трилер, фантастика
Країна: Велика Британія, Франція, Бельгія



Кінокомпанія: Nexus Factory, Raffaella Productions, SND Films
Режисер: Томмі Віркола
Актори: Нумі Рапас, Ґленн Клоуз, Віллем Дефо, Марван Кензарі, Крістіан Рубек, Пол Сверре Валхейм Хаген, Томіва Едун, Кірсті Авертон, Олександр Нгуйен, Роберт Вагнер та інші

Сюжет:
У світі, де сімейним парам дозволено мати лише одну дитину, народжується семеро сестер-близнючок. Але батьки вирішують ризикнути та таємно залишити їх. Вони дають малюкам імена на честь днів тижня. Так все життя дівчатка і виходять у люди – кожна у свій день. Але одного разу Понеділок зникає…


Тривалість: 02:03:18
Якість: Remux
Відео:
кодек:
розмір кадру: 1920 х 1080
бітрейт: 27.6 Mб/с

Аудіо # 1:
мова: українська (AAA-Sound)
переклад: професійний дубльований
кодек: 2.0
бітрейт: 192 кб/с

Аудіо # 2:
мова: англійська
переклад: оригінал
кодек: -HD MA 5.1
бітрейт: 2374 кб/с

Субтитри: ( Full,SDH)
мова: англійська
тип: програмні (м'які)
формат: *.srt
Info
General
Unique ID : 283951678937076098562608199799972172684 (0xD59F1AA7C3E740E3EF10B7580C96138C)
Complete name : E:\Films\Сім сестер Seven Sisters What Happened to Monday (2017) Remux 1080p UkrEng Sub Eng[Hurtom].
Format :
Format version : Version 4 / Version 2
File size : 26.0 GiB
Duration : 2 h 3 min
Overall bit rate mode : Variable
Overall bit rate : 30.1 Mb/s
Movie name : What.Happened.to.Monday.2017.REMUX.1080p.BluRay.AVC.-HD.MA.5.1-iFT
Encoded date : UTC 2017-12-31 11:36:39
Writing application : v19.0.0 ('Brave Captain') 64-bit
Writing library : libebml v1.3.5 + v1.4.8

Video
ID : 1
Format : AVC
Format/Info : Advanced Video Codec
Format profile : [email protected]
Format settings : CABAC / 2 Ref Frames
Format settings, CABAC : Yes
Format settings, ReFrames : 2 frames
Codec ID : V_MPEG4/ISO/AVC
Duration : 2 h 3 min
Bit rate mode : Variable
Bit rate : 27.6 Mb/s
Width : 1 920 pixels
Height : 1 080 pixels
Display aspect ratio : 16:9
Frame rate mode : Constant
Frame rate : 24.000 FPS
Color space : YUV
Chroma subsampling : 4:2:0
Bit depth : 8 bits
Scan type : Progressive
Bits/(Pixel*Frame) : 0.554
Stream size : 23.8 GiB (91%)
Default : Yes
Forced : No

Audio #1
ID : 2
Format : AC-3
Format/Info : Audio Coding 3
Codec ID : A_AC3
Duration : 2 h 3 min
Bit rate mode : Constant
Bit rate : 192 kb/s
Channel(s) : 2 channels
Channel positions : Front: L R
Sampling rate : 48.0 kHz
Frame rate : 31.250 FPS (1536 SPF)
Bit depth : 16 bits
Compression mode : Lossy
Stream size : 169 MiB (1%)
Language : Ukrainian
Service kind : Complete Main
Default : No
Forced : No

Audio #2
ID : 3
Format :
Format/Info : Digital Theater Systems
Format profile : MA / Core
Codec ID : A_DTS
Duration : 2 h 3 min
Bit rate mode : Variable / Constant
Bit rate : 2 374 kb/s / 1 509 kb/s
Channel(s) : 6 channels
Channel positions : Front: L C R, Side: L R, LFE
Sampling rate : 48.0 kHz
Frame rate : 93.750 FPS (512 SPF)
Bit depth : 16 bits
Compression mode : Lossless / Lossy
Stream size : 2.05 GiB (8%)
Language : English
Default : Yes
Forced : No

Text #1
ID : 4
Format : UTF-8
Codec ID : S_TEXT/UTF8
Codec ID/Info : UTF-8 Plain Text
Duration : 1 h 56 min
Bit rate : 33 b/s
Count of elements : 903
Stream size : 28.5 KiB (0%)
Language : English
Default : Yes
Forced : No

Text #2
ID : 5
Format : UTF-8
Codec ID : S_TEXT/UTF8
Codec ID/Info : UTF-8 Plain Text
Duration : 1 h 56 min
Bit rate : 34 b/s
Count of elements : 897
Stream size : 29.2 KiB (0%)
Language : English
Default : No
Forced : No

Menu
00:00:00.000 : en:Chapter 01
00:09:13.666 : en:Chapter 02
00:20:16.791 : en:Chapter 03
00:29:12.333 : en:Chapter 04
00:40:32.000 : en:Chapter 05
00:51:51.750 : en:Chapter 06
00:58:04.791 : en:Chapter 07
01:14:19.833 : en:Chapter 08
01:22:25.000 : en:Chapter 09
01:32:37.958 : en:Chapter 10
01:42:29.791 : en:Chapter 11
01:49:55.875 : en:Chapter 12
02:03:31.500 : en:Chapter 13
Скріншоти





Подяка сайту uafilm.tv за придбану доріжку, синхронізація Electroz

Джерело: &
Особиста оцінка: 10 - без зайвих вагань рекомендую всім!


Золотий реліз (завантажене не впливає на рейтинг)
 Трекер:    Зареєстрований   

Завантажити / скачати фільм українською



відео для новачків



 Зареєстрований:   2017-12-31 17:50
 Розмір:   25.99 GB 
 Оцінка фільму:   9.1/10 (Голосів: 29)
   
Rabotnik UA 
Новенький


З нами з: 31.08.15
Востаннє: 21.05.19
Повідомлень: 21

2017-12-31 18:06  
IronBee
дайте, будь-ласка, золото на кілька днів
(через деякий час Wide grin) дякую, що відгукнулись на прохання

c0nf1g 
Новенький


З нами з: 01.06.15
Востаннє: 22.05.19
Повідомлень: 3

2018-01-01 03:33  
цікавий фільм, сподобалось.
Bugaj UA 
Новенький


З нами з: 05.08.10
Востаннє: 15.05.19
Повідомлень: 20

2018-01-01 22:39  
Я відгуки пишу вкрай рідко. Переглянув цю стрічку, і не міг не написати. Не хочу говорити про гру акторів та про бюджет стрічки, я не є фахівцем у цьому.
1) Опис фільму не відповідає дійсності. Ніяких батьків не було і поготів, дівчат виховував дідусь.
2) Вражає, як режисер вимальовує тупість спец призначенців. 2073 рік , а вони їздять на МВ Vito (без номерних знаків) та Sprіnter 2000-2006 року випуску (сам такий маю). Ніяких нових технологій в них не має і інтернетом користуватись не вміють.
3) Сестер нам показують у образі супер героїв. Більшість часу дівчата проводять в домі і просто не маютть ні часу ні можливостей займатись (як мінімум дві з сестер стріляють краще ніж специ). Як вони харчуються та утримують житло на одну зарплату? На землі проживає 50 мільярдів населення, а в рядового поліцая 3 кімнатна квартира, в клерка з банку пентхаус та й в сестер також не комуналка(а за стіною взагалі квартира пустує).
4) Я не вірив що можна зіпсувати сцену в ліжку. Виявляється можна.
Я чекав щось накшталт "Особливої думки" чи "Еквілібріум", а побачив шлак і пропаганду, що людей винищувати треба - навіть корисно. Так сказав режисер вустами головного "Біг Боса".
Шкодую потраченого часу.

zhman 
Поважний учасник


З нами з: 21.12.14
Востаннє: 21.05.19
Повідомлень: 220

2018-01-16 15:43  
досить не погано. Мені сподобалось, зокрема через непередбачуваний кінець
strategic 
1k G+


З нами з: 27.01.13
Востаннє: 21.05.19
Повідомлень: 115

2018-02-24 13:20  
Bugaj UA
дякую за розгорнутий відгук.

O_omarella! 
Свій


З нами з: 14.06.13
Востаннє: 11.05.19
Повідомлень: 116

2018-07-29 17:33  
Фільм слабенький, лише на один раз...
Ваш часовий пояс: GMT + 2 Години

Нова тема   Відповісти