Той, що стікає кров'ю / Bleeder (1999) Dan | sub Ukr/Eng/Fre

Нові коментарі

Нова тема   Відповісти
Автор Повідомлення
Yamato 
Новенький


З нами з: 12.08.08
Востаннє: 23.11.20
Повідомлень: 4

2017-12-30 23:49  
Той, що стікає кров'ю / Bleeder (1999) Dan | sub Ukr/Eng/Fre

Той, що стікає кров'ю / Bleeder (1999) Dan | sub Ukr/Eng/Fre


Жанр: драма, кримінальний
Країна: Данія



Кінокомпанія: Kamikaze
Режисер: Ніколас Віндінґ Рефн / Nicolas Winding Refn
Актори: Кім Бодніа / Kim Bodnia, Мадс Міккельсен / Mads Mikkelsen, Рікке Луїсе Андерсон / Rikke Louise Andersson, Лів Корфіксен / Liv Corfixen, Левіно Єнсен / Levino Jensen, Златко Бурич / Zlatko Buric

Сюжет:
Кілька паралельних історій з Копенгагена. Ленні, що працює у відеопрокаті, намагається познайомитися з Леа, яка працює в закусочній неподалік. Лео і Луїсе - молода пара, що живе разом. Коли Луїсе каже Лео, що вона вагітна, в ньому щось ламається і він стає відчудженим і холодним. Його лють і ненависть до себе виливаються в агресію. Це не подобається братові Луїсе - расисту на ім'я Луї.
Від себе
Один з ранніх фільмів Рефна його данського періоду. Його він зняв після першого Пушера. Тут ми знову бачимо Міккельсена (Ганнібал), Бодніа (Міст) і Златко Бурича. Сильна драма про місце насильства у житті, здавалось би, спокійного Копенгагена. Цікава операторська робота - всі зйомки з ручної камери.
Тривалість: 01:33:38
Якість:
Відео:
кодек:
розмір кадру: 720 x 304
бітрейт: 2035 кб/с

Аудіо:
мова: данська
переклад: оригінал
кодек: 5.1
бітрейт: 448 кб/с

Субтитри:
мова: українська (переклад з англійської - Сергій Довгаль)
тип: програмні (м'які)
формат: *.srt

Субтитри:
мова: англійська
тип: програмні (м'які)
формат: *.srt

Субтитри:
мова: французька
тип: програмні (м'які)
формат: *.srt
Info
Код:
General
Unique ID                   : 54893300349554260836183105587977163578 (0x294C10A9AB499F255F6EE04056D4933A)
Complete name               : C:\Bleeder.1999...dan.ukr.
Format                      :
Format version              : Version 4
File size                   : 1.63 GiB
Duration                    : 1 h 33 min
Overall bit rate            : 2 485 kb/s
Encoded date                : UTC 2017-12-30 19:58:54
Writing application         : v19.0.0 ('Brave Captain') 64-bit
Writing library             : libebml v1.3.5 + v1.4.8

Video
ID                          : 1
Format                      : AVC
Format/Info                 : Advanced Video Codec
Format profile              : [email protected]
Format settings             : CABAC / 12 Ref Frames
Format settings, CABAC      : Yes
Format settings, ReFrames   : 12 frames
Codec ID                    : V_MPEG4/ISO/AVC
Duration                    : 1 h 33 min
Bit rate                    : 2 035 kb/s
Width                       : 720 pixels
Height                      : 304 pixels
Display aspect ratio        : 2.35:1
Frame rate mode             : Constant
Frame rate                  : 25.000 FPS
Color space                 : YUV
Chroma subsampling          : 4:2:0
Bit depth                   : 8 bits
Scan type                   : Progressive
Bits/(Pixel*Frame)          : 0.372
Stream size                 : 1.33 GiB (82%)
Writing library             : core 124 r2197 69a0443
Encoding settings           : cabac=1 / ref=12 / deblock=1:-3:-3 / analyse=0x3:0x111 / me=umh / subme=11 / psy=1 / psy_rd=1.00:0.00 / mixed_ref=1 / me_range=32 / chroma_me=1 / trellis=2 / 8x8dct=1 / cqm=0 / deadzone=21,11 / fast_pskip=0 / chroma_qp_offset=-2 / threads=6 / sliced_threads=0 / nr=0 / decimate=1 / interlaced=0 / bluray_compat=0 / constrained_intra=0 / bframes=9 / b_pyramid=2 / b_adapt=2 / b_bias=0 / direct=3 / weightb=1 / open_gop=0 / weightp=2 / keyint=250 / keyint_min=25 / scenecut=40 / intra_refresh=0 / rc_lookahead=50 / rc=2pass / mbtree=1 / bitrate=2035 / ratetol=1.0 / qcomp=0.60 / qpmin=0 / qpmax=69 / qpstep=4 / cplxblur=20.0 / qblur=0.5 / ip_ratio=1.40 / aq=1:1.10
Default                     : No
Forced                      : Yes

Audio
ID                          : 2
Format                      : AC-3
Format/Info                 : Audio Coding 3
Commercial name             : Dolby Digital
Codec ID                    : A_AC3
Duration                    : 1 h 33 min
Bit rate mode               : Constant
Bit rate                    : 448 kb/s
Channel(s)                  : 6 channels
Channel layout              : L R C LFE Ls Rs
Sampling rate               : 48.0 kHz
Frame rate                  : 31.250 FPS (1536 SPF)
Bit depth                   : 16 bits
Compression mode            : Lossy
Stream size                 : 300 MiB (18%)
Title                       : Danish
Language                    : Danish
Service kind                : Complete Main
Default                     : No
Forced                      : Yes

Text #1
ID                          : 3
Format                      : UTF-8
Codec ID                    : S_TEXT/UTF8
Codec ID/Info               : UTF-8 Plain Text
Duration                    : 1 h 29 min
Bit rate                    : 54 b/s
Count of elements           : 793
Stream size                 : 35.7 KiB (0%)
Language                    : Ukrainian
Default                     : Yes
Forced                      : No

Text #2
ID                          : 4
Format                      : UTF-8
Codec ID                    : S_TEXT/UTF8
Codec ID/Info               : UTF-8 Plain Text
Duration                    : 1 h 28 min
Bit rate                    : 35 b/s
Count of elements           : 772
Stream size                 : 23.2 KiB (0%)
Language                    : English
Default                     : No
Forced                      : No

Text #3
ID                          : 5
Format                      : UTF-8
Codec ID                    : S_TEXT/UTF8
Codec ID/Info               : UTF-8 Plain Text
Duration                    : 1 h 26 min
Bit rate                    : 41 b/s
Count of elements           : 770
Stream size                 : 26.2 KiB (0%)
Language                    : French
Default                     : No
Forced                      : No
Скріншоти




Джерело: (після довгих пошуків знайшов на якомусь відкритому трекері)
Особиста оцінка: 9 - дуже сподобався рефнівський лаконічний стиль та робота оператора


Золотий реліз (завантажене не впливає на рейтинг)
 Трекер:    Зареєстрований   

Завантажити / скачати фільм українською



відео для новачків



 Зареєстрований:   2017-12-30 23:49
 Розмір:   1.63 GB 
 Оцінка фільму:   7.5/10 (Голосів: 4)
   
perepadia 
VIP


З нами з: 27.10.08
Востаннє: 29.11.20
Повідомлень: 306

2017-12-31 08:36  
Кров'ю спливають, а не стікають.
Yamato 
Новенький


З нами з: 12.08.08
Востаннє: 23.11.20
Повідомлень: 4

2017-12-31 11:05  
perepadia
І стікають, і спливають, і сходять теж.

Ваш часовий пояс: GMT + 2 Години

Нова тема   Відповісти