Геркулес / Hercules (1997) AVC 2xUkr/Eng | Sub Eng

Нові коментарі

Нова тема   Відповісти
Автор Повідомлення
Anonymous 







2017-12-30 00:23  
Геркулес / Hercules (1997) AVC 2xUkr/Eng | Sub Eng



Жанр: анімація, мюзикл, фентезі, пригодницький, комедія, сімейний
Країна: США



Кінокомпанія: Walt Disney Pictures, Walt Disney Feature Animation
Режисер: Рон Клементс / Ron Clements, Джон Маскер / John Musker
Актори: Тейт Донован / Tate Donovan, Джош Кітон / Josh Keaton, Роджер Барт / Roger Bart, Денні ДеВіто / Danny DeVito, Джеймс Вудс / James Woods, Сьюзен Іґан / Susan Egan, Боб Ґолдтвейт / Bobcat Goldthwait, Метт Фрювер / Matt Frewer, Ріп Торн / Rip Torn, Саманта Еґґар / Samantha Eggar та інші

Сюжет:
Правитель підземного царства Аїд підступом скинув нащадка богів з Олімпу і тепер, щоб повернутися на священну гору, Геркулес повинен здійснити подвиг і стати справжнім героєм. Разом з чарівним конем Пеґасом він б'ється з Титанами і чудовиськами вічної пітьми. Але найсерйозніше випробування чекає героя в царстві тіней, де Повелитель мороку заховав його кохану. Там, у віковій тиші підземелля, Геркулесові не допоможуть боги з далекого Олімпу, адже тільки добре серце і справжня любов здатні перемогти сили зла!


Тривалість: 01:33:12
Якість: AVC
Відео:
кодек:
розмір кадру: 1024 х 576
бітрейт: 2000 кб/с

Аудіо # 1:
мова: українська
переклад: професійний дубльований
кодек: 2.0 [стерео]
бітрейт: 192 кб/с
Інформація про дубляж
Переклад: Роман Дяченко
Режисер дубляжу: Костянтин Лінартович
Звукорежисер: Марія Нестеренко
Музичний керівник: Іван Давиденко
Ролі дублювали: Олександр Пономаренко, Ольга Цибульська, Богдан Бенюк, Костянтин Таран, Назар Задніпровський, Дмитро Вітер, Василь Мазур, Ернест Дерябін, Людмила Ардельян, Дмитро Завадський, Андрій Мостренко та інші.
Пісні виконують: Ольга Нека, Валентина Лонська, Катіко Пурцеладзе, Наталя Гордієнко, Олена Дегтярова та інші.

Фільм дубльовано студією LeDoyen на замовлення Disney Character Voices International.
Аудіо # 2:
мова: українська
переклад: двоголосий закадровий
кодек: 2.0
бітрейт: 192 кб/с
Інформація про озвучення
Аудіо # 3:
мова: англійська
переклад: оригінал
кодек: 5.1
бітрейт: 448 кб/с

Субтитри # 1-2:
мова: англійська (повні, SDH)
тип: програмні (м'які)
формат: *.srt

Збережено оригінальні розділи, як на Blu-ray
Info
Код:
Complete name               : Hercules (1997) [2xUkr,Eng sub.Eng] AVC [Hurtom].
Format                      :
Format version              : Version 4 / Version 2
File size                   : 1.84 GiB
Duration                    : 1 h 33 min
Overall bit rate            : 2 833 kb/s
Movie name                  : Геркулес / Hercules (1997) [2xUkr,Eng sub.Eng] AVC [Hurtom]
Released date               : 1997
Writing library             : libebml v1.3.5 + v1.4.8
Cover                       : Yes
Comment                     : http://www.imdb.com/title/tt0119282/
Attachments                 : cover.jpg
ARTIST                      : Тейт Донован / Tate Donovan, Джош Кітон / Josh Keaton, Роджер Барт / Roger Bart, Денні ДеВіто / Danny DeVito, Джеймс Вудс / James Woods, Сьюзен Іґан / Susan Egan, Боб Ґолдтвейт / Bobcat Goldthwait, Метт Фрювер / Matt Frewer, Ріп Торн / Rip Torn, Саманта Еґґар / Samantha Eggar та інші
DIRECTOR                    : Рон Клементс / Ron Clements, Джон Маскер / John Musker
GENRE                       : анімація, пригодницький, комедія
SYNOPSIS                    : Правитель підземного царства Аїд підступом скинув нащадка богів з Олімпу і тепер, щоб повернутися на священну гору, Геркулес повинен здійснити подвиг і стати справжнім героєм. Разом з чарівним конем Пеґасом він б'ється з Титанами і чудовиськами вічної пітьми. Але найсерйозніше випробування чекає героя в царстві тіней, де Повелитель мороку заховав його кохану. Там, у віковій тиші підземелля, Геркулесові не допоможуть боги з далекого Олімпу, адже тільки добре серце і справжня любов здатні перемогти сили зла!
Url                         : https://toloka.to/t86167

Video
ID                          : 1
Format                      : AVC
Format/Info                 : Advanced Video Codec
Format profile              : [email protected]
Format settings             : CABAC / 9 Ref Frames
Format settings, CABAC      : Yes
Format settings, ReFrames   : 9 frames
Codec ID                    : V_MPEG4/ISO/AVC
Duration                    : 1 h 33 min
Bit rate                    : 2 000 kb/s
Width                       : 1 024 pixels
Height                      : 576 pixels
Display aspect ratio        : 16:9
Frame rate mode             : Constant
Frame rate                  : 23.976 (24000/1001) FPS
Color space                 : YUV
Chroma subsampling          : 4:2:0
Bit depth                   : 8 bits
Scan type                   : Progressive
Bits/(Pixel*Frame)          : 0.141
Stream size                 : 1.30 GiB (71%)
Title                       : Геркулес / Hercules (1997) AVC [MediaClub-Odessit]
Writing library             : core 133 r2334 a3ac64b
Encoding settings           : cabac=1 / ref=9 / deblock=1:-3:-3 / analyse=0x3:0x133 / me=umh / subme=11 / psy=1 / psy_rd=1.00:0.20 / mixed_ref=1 / me_range=48 / chroma_me=1 / trellis=2 / 8x8dct=1 / cqm=0 / deadzone=21,11 / fast_pskip=0 / chroma_qp_offset=-3 / threads=6 / lookahead_threads=1 / sliced_threads=0 / nr=0 / decimate=0 / interlaced=0 / bluray_compat=0 / constrained_intra=0 / bframes=9 / b_pyramid=2 / b_adapt=2 / b_bias=0 / direct=3 / weightb=1 / open_gop=0 / weightp=2 / keyint=240 / keyint_min=23 / scenecut=40 / intra_refresh=0 / rc=2pass / mbtree=0 / bitrate=2000 / ratetol=1.0 / qcomp=0.60 / qpmin=0 / qpmax=69 / qpstep=4 / cplxblur=20.0 / qblur=0.5 / ip_ratio=1.40 / pb_ratio=1.30 / aq=1:1.00
Language                    : English
Default                     : Yes
Forced                      : No

Audio #1
ID                          : 2
Format                      : AC-3
Format/Info                 : Audio Coding 3
Codec ID                    : A_AC3
Duration                    : 1 h 32 min
Bit rate mode               : Constant
Bit rate                    : 192 kb/s
Channel(s)                  : 2 channels
Channel positions           : Front: L R
Sampling rate               : 48.0 kHz
Frame rate                  : 31.250 FPS (1536 SPF)
Bit depth                   : 16 bits
Compression mode            : Lossy
Stream size                 : 126 MiB (7%)
Title                       : Dub [LeDoyen, Megogo] 2.0 [stereo] 192 Kbps [Hurtom]
Language                    : Ukrainian
Service kind                : Complete Main
Default                     : Yes
Forced                      : Yes

Audio #2
ID                          : 3
Format                      : AC-3
Format/Info                 : Audio Coding 3
Codec ID                    : A_AC3
Duration                    : 1 h 33 min
Bit rate mode               : Constant
Bit rate                    : 192 kb/s
Channel(s)                  : 2 channels
Channel positions           : Front: L R
Sampling rate               : 48.0 kHz
Frame rate                  : 31.250 FPS (1536 SPF)
Bit depth                   : 16 bits
Compression mode            : Lossy
Stream size                 : 128 MiB (7%)
Title                       : DVO [Novyj] 2.0 192 Kbps [Hurtom]
Language                    : Ukrainian
Service kind                : Complete Main
Default                     : No
Forced                      : No

Audio #3
ID                          : 4
Format                      : AC-3
Format/Info                 : Audio Coding 3
Codec ID                    : A_AC3
Duration                    : 1 h 33 min
Bit rate mode               : Constant
Bit rate                    : 448 kb/s
Channel(s)                  : 6 channels
Channel positions           : Front: L C R, Side: L R, LFE
Sampling rate               : 48.0 kHz
Frame rate                  : 31.250 FPS (1536 SPF)
Bit depth                   : 16 bits
Compression mode            : Lossy
Stream size                 : 299 MiB (16%)
Title                       : Original, 5.1 448 Kbps
Language                    : English
Service kind                : Complete Main
Default                     : No
Forced                      : No

Text #1
ID                          : 5
Format                      : UTF-8
Codec ID                    : S_TEXT/UTF8
Codec ID/Info               : UTF-8 Plain Text
Duration                    : 1 h 32 min
Bit rate                    : 64 b/s
Count of elements           : 1270
Stream size                 : 43.5 KiB (0%)
Title                       : Eng full
Language                    : English
Default                     : No
Forced                      : No

Text #2
ID                          : 6
Format                      : UTF-8
Codec ID                    : S_TEXT/UTF8
Codec ID/Info               : UTF-8 Plain Text
Duration                    : 1 h 32 min
Bit rate                    : 74 b/s
Count of elements           : 1579
Stream size                 : 50.8 KiB (0%)
Title                       : Eng SDH
Language                    : English
Default                     : No
Forced                      : No

Menu
00:00:00.000                : :Chapter 01
00:00:32.824                : :Chapter 02
00:02:28.690                : :Chapter 03
00:05:16.566                : :Chapter 04
00:07:55.391                : :Chapter 05
00:10:59.617                : :Chapter 06
00:14:23.195                : :Chapter 07
00:18:28.649                : :Chapter 08
00:20:12.628                : :Chapter 09
00:21:01.468                : :Chapter 10
00:25:29.986                : :Chapter 11
00:28:21.324                : :Chapter 12
00:32:08.927                : :Chapter 13
00:35:20.743                : :Chapter 14
00:39:12.308                : :Chapter 15
00:44:26.246                : :Chapter 16
00:48:29.156                : :Chapter 17
00:51:32.547                : :Chapter 18
00:53:47.390                : :Chapter 19
00:55:20.650                : :Chapter 20
00:57:49.632                : :Chapter 21
01:01:18.341                : :Chapter 22
01:03:47.615                : :Chapter 23
01:07:44.977                : :Chapter 24
01:10:27.890                : :Chapter 25
01:15:17.513                : :Chapter 26
01:17:08.457                : :Chapter 27
01:19:13.331                : :Chapter 28
01:20:55.100                : :Chapter 29
01:23:44.477                : :Chapter 30
01:26:01.239                : :Chapter 31
01:27:03.176                : :Chapter 32
01:33:11.961                : :Chapter 33


Джерело: &
Звук: Vasua95, Hanway, OlegCena, Gelios; постер: Gelios; фільмографії акторів: Віктор


Срібний реліз (на рейтинг впливає 50% завантаженого)
 Трекер:    Зареєстрований   

Завантажити / скачати мультфільм українською



відео для новачків



 Зареєстрований:   2017-12-30 00:28
 Розмір:   1.84 GB 
 Оцінка мультфільму:   9.8/10 (Голосів: 35)
   
Інші релізи
   Геркулес / Hercules (1997) 1080p 2xUkr/Eng | Sub Eng kino.  5 / 0   4.98 GB   2014-08-09 15:53 
   Геркулес / Hercules (1997) 720p 2xUkr/Eng kino.  6 / 0   2.89 GB   2014-06-20 15:47 
   Геркулес / Hercules (1997) 2xUkr Gelios  10 / 0   1.45 GB   2014-06-19 21:52 
Ваш часовий пояс: GMT + 2 Години

Нова тема   Відповісти