Доктор Хто. Двічі у часі (Різдвяний спецепізод) / Doctor Who. Twice Upon A Time (Christmas special) (2017) 1080p Ukr/Eng

Нові коментарі

Нова тема   Відповісти
Автор Повідомлення
BaibaKoTV 
Частий відвідувач


З нами з: 01.12.16
Востаннє: 31.08.19
Повідомлень: 28

2017-12-29 23:03  
Доктор Хто. Двічі у часі (Різдвяний спецепізод) / Doctor Who. Twice Upon A Time (Christmas special) (2017) 1080p Ukr/Eng

Доктор Хто. Двічі у часі (Різдвяний спецепізод) / Doctor Who. Twice Upon A Time (Christmas special) (2017) 1080p Ukr/Eng


Жанр: фантастика, комедія
Країна: Велика Британія



Кінокомпанія: BBC
Режисер: Рейчел Талалей
Актори: Пітер Капальді, Перл Макі, Марк Ґеттіс, Девід Бредлі, Мет Лукас та інші

Сюжет:

Двоє Докторів опинилися у засніженій арктичній місцевості та відмовляються регенерувати. Загадкові скляні люди викрадають своїх жертв, застиглих у часі. А один капітан, який бере участь у Першій світовій війні, якому судилося загинути на полі бою, залишає окопи, щоб зіграти свою роль в історії Доктора.


Тривалість: 1 серія: 60 хв (цілком серій: 1)
Якість: 1080p
Відео:
кодек:
розмір кадру: 1920x1080
бітрейт: 8477 кб/с

Аудіо # 1:
мова: українська
переклад: багатоголосий закадровий | BaibaKoTV
кодек: 5.1
бітрейт: 640 кб/с

Аудіо # 2:
мова: англійська
переклад: оригінал
кодек: 5.1
бітрейт: 640 кб/с
Info
General
Format :
Format version : Version 4 / Version 2
File size : 4.04 GiB
Duration : 59 min 58 s
Overall bit rate mode : Variable
Overall bit rate : 9 639 kb/s
Encoded date : UTC 2017-12-27 19:47:45
Writing application : v18.0.0 ('Apricity') 64-bit
Writing library : libebml v1.3.5 + v1.4.8

Video
ID : 1
Format : AVC
Format/Info : Advanced Video Codec
Format profile : [email protected]
Format settings, CABAC : Yes
Format settings, RefFrames : 4 frames
Codec ID : V_MPEG4/ISO/AVC
Duration : 59 min 58 s
Bit rate mode : Variable
Bit rate : 8 357 kb/s
Maximum bit rate : 15.0 Mb/s
Width : 1 920 pixels
Height : 1 080 pixels
Display aspect ratio : 16:9
Frame rate mode : Constant
Frame rate : 25.000 FPS
Color space : YUV
Chroma subsampling : 4:2:0
Bit depth : 8 bits
Scan type : Progressive
Bits/(Pixel*Frame) : 0.161
Stream size : 3.50 GiB (87%)
Default : Yes
Forced : No
Color range : Limited
Color primaries : BT.709
Transfer characteristics : BT.709
Matrix coefficients : BT.709

Audio #1
ID : 2
Format : AC-3
Format/Info : Audio Coding 3
Format settings, Endianness : Big
Codec ID : A_AC3
Duration : 59 min 58 s
Bit rate mode : Constant
Bit rate : 640 kb/s
Channel(s) : 6 channels
Channel positions : Front: L C R, Side: L R, LFE
Sampling rate : 48.0 kHz
Frame rate : 31.250 FPS (1536 SPF)
Bit depth : 16 bits
Compression mode : Lossy
Stream size : 275 MiB (7%)
Language : Ukrainian
Service kind : Complete Main
Default : Yes
Forced : No

Audio #2
ID : 3
Format : AC-3
Format/Info : Audio Coding 3
Format settings, Endianness : Big
Codec ID : A_AC3
Duration : 59 min 58 s
Bit rate mode : Constant
Bit rate : 640 kb/s
Channel(s) : 6 channels
Channel positions : Front: L C R, Side: L R, LFE
Sampling rate : 48.0 kHz
Frame rate : 31.250 FPS (1536 SPF)
Bit depth : 16 bits
Compression mode : Lossy
Stream size : 275 MiB (7%)
Language : English
Service kind : Complete Main
Default : No
Forced : No
Скріншоти
Особлива подяка WolfLone93 за допомогу в підготовці релізу!


Авторський реліз (завантажувати можна без реєстрації)
 Трекер:    Зареєстрований   

Завантажити / скачати серіал українською



відео для новачків



 Зареєстрований:   2017-12-29 23:10
 Розмір:   4.04 GB 
 Оцінка серіалу:   10/10 (Голосів: 10)
   
Obey 
Свій


З нами з: 12.06.11
Востаннє: 20.09.19
Повідомлень: 91

2017-12-30 00:42  
Ще буде "Доктор" українською?
BaibaKoTV 
Частий відвідувач


З нами з: 01.12.16
Востаннє: 31.08.19
Повідомлень: 28

2017-12-30 00:51  
Obey

Принаймні ще один різдвяний має бути.

Петров Микола 
VIP


З нами з: 15.08.14
Востаннє: 20.09.19
Повідомлень: 585

2017-12-31 00:39  
BaibaKoTV
А Бібліотекарів слід очікувати від вас?

S1S13AF7 
Поважний учасник


З нами з: 07.06.10
Востаннє: 19.09.19
Повідомлень: 224

2017-12-31 13:03  
.. і все ще немає :(
BaibaKoTV 
Частий відвідувач


З нами з: 01.12.16
Востаннє: 31.08.19
Повідомлень: 28

2017-12-31 20:08  
Петров Микола

У планах є, але ніяк не вдається стартувати.

Seriy100293 
VIP


З нами з: 17.08.11
Востаннє: 19.09.19
Повідомлень: 460

2018-08-09 22:44  
BaibaKoTV
Як же ж прискорити процес, щоб "Час Доктора" вийшов нарешті українською?!

Ваш часовий пояс: GMT + 2 Години

Нова тема   Відповісти