Перевага Борна / The Bourne Supremacy (2004) 1080p 2xUkr/Eng | Sub Eng

Нові коментарі

Нова тема   Відповісти
Автор Повідомлення
Argentum 
VIP


З нами з: 25.09.11
Востаннє: 19.01.21
Повідомлень: 274

2017-12-28 17:03  
Перевага Борна / The Bourne Supremacy (2004) 1080p 2xUkr/Eng | Sub Eng

Перевага Борна / The Bourne Supremacy (2004) 1080p 2xUkr/Eng | Sub Eng


Жанр: бойовик, трилер, кримінальний, пригодницький
Країна: США, Німеччина



Кінокомпанія: Universal Pictures, Kennedy/Marshall, Ludlum Entertainment
Режисер: Пол Грінграсс
Актори: Метт Деймон, Франка Потенте, Брайан Кокс, Джулія Стайлз, Карл Урбан, Джоан Аллен, Гебріел Манн та інші.

Сюжет:
Через три роки після подій "Ідентифікації Борна" ЦРУ знову починає переслідувати колишнього агента Джейсона Борна, який втратив пам'ять. Коли внаслідок цього гине близька людина, він змушений знову вийти на стежку війни... Доля заносить Борна в Росію, де на нього чекає безліч характерних для країни, але незвичних західній людині, сюрпризів.


Тривалість: 01:48:31
Якість:
Відео:
кодек:
розмір кадру: 1920 х 816
бітрейт: 16820 кб/с

Аудіо # 1:
мова: українська
переклад: багатоголосий закадровий
кодек: 2.0 (стерео)
бітрейт: 192 кб/с

Аудіо # 2:
мова: українська
переклад: багатоголосий закадровий
кодек: 2.0
бітрейт: 192 кб/с

Аудіо # 3:
мова: англійська
переклад: оригінал
кодек: 5.1
бітрейт: 640 кб/с

Субтитри 1:
мова: українська
тип: програмні (м'які)
формат: *.srt

Субтитри 2-3: (форсовані, повні)
мова: англійська
тип: програмні (м'які)
формат: *.srt
Info
General
Unique ID : 229824164069290616454202304610409165673 (0xACE68621BFF35879D3FE52DF1E34B369)
Complete name :The.Bourne.Supremacy.2004..1080p.Ukr.Eng.Hurtom.
Format :
Format version : Version 4
File size : 13.5 GiB
Duration : 1 h 48 min
Overall bit rate : 17.8 Mb/s
Movie name : The Bourne Supremacy (2004)
Encoded date : UTC 2021-01-07 18:01:46
Writing application : v52.0.0 ('Secret For The Mad') 64-bit
Writing library : libebml v1.4.1 + v1.6.2
Attachments : zucEXMPW9jK7TcNBthWNQk25DUy.jpg

Video
ID : 1
Format : AVC
Format/Info : Advanced Video Codec
Format profile : [email protected]
Format settings : CABAC / 5 Ref Frames
Format settings, CABAC : Yes
Format settings, Reference : 5 frames
Codec ID : V_MPEG4/ISO/AVC
Duration : 1 h 48 min
Bit rate : 16.8 Mb/s
Width : 1 920 pixels
Height : 816 pixels
Display aspect ratio : 2.35:1
Frame rate mode : Constant
Frame rate : 23.976 (24000/1001) FPS
Color space : YUV
Chroma subsampling : 4:2:0
Bit depth : 8 bits
Scan type : Progressive
Bits/(Pixel*Frame) : 0.448
Stream size : 12.7 GiB (94%)
Title : AVC 1920*816 @ 16.8 Mb/s
Writing library : core 148 r2795 aaa9aa8
Encoding settings : cabac=1 / ref=5 / deblock=1:-3:-3 / analyse=0x3:0x133 / me=umh / subme=11 / psy=1 / psy_rd=1,00:0,15 / mixed_ref=1 / me_range=48 / chroma_me=1 / trellis=2 / 8x8dct=1 / cqm=0 / deadzone=21,11 / fast_pskip=0 / chroma_qp_offset=-3 / threads=6 / lookahead_threads=1 / sliced_threads=0 / nr=0 / decimate=1 / interlaced=0 / bluray_compat=0 / constrained_intra=0 / bframes=8 / b_pyramid=2 / b_adapt=2 / b_bias=0 / direct=3 / weightb=1 / open_gop=0 / weightp=2 / keyint=240 / keyint_min=24 / scenecut=40 / intra_refresh=0 / rc_lookahead=60 / rc=2pass / mbtree=0 / bitrate=16820 / ratetol=1,0 / qcomp=0,60 / qpmin=0 / qpmax=69 / qpstep=4 / cplxblur=20,0 / qblur=0,5 / vbv_maxrate=62500 / vbv_bufsize=78125 / nal_hrd=none / filler=0 / ip_ratio=1,40 / pb_ratio=1,30 / aq=1:1,00
Language : English
Default : Yes
Forced : Yes
Color range : Limited
Color primaries : BT.709
Transfer characteristics : BT.709
Matrix coefficients : BT.709

Audio #1
ID : 2
Format : AC-3
Format/Info : Audio Coding 3
Commercial name : Dolby Digital
Codec ID : A_AC3
Duration : 1 h 48 min
Bit rate mode : Constant
Bit rate : 192 kb/s
Channel(s) : 2 channels
Channel layout : L R
Sampling rate : 48.0 kHz
Frame rate : 31.250 FPS (1536 SPF)
Compression mode : Lossy
Stream size : 149 MiB (1%)
Title : AC-3 2.0 @ 192 kb/s # CINE+
Language : Ukrainian
Service kind : Complete Main
Default : Yes
Forced : Yes

Audio #2
ID : 3
Format : AC-3
Format/Info : Audio Coding 3
Commercial name : Dolby Digital
Codec ID : A_AC3
Duration : 1 h 48 min
Bit rate mode : Constant
Bit rate : 192 kb/s
Channel(s) : 2 channels
Channel layout : L R
Sampling rate : 48.0 kHz
Frame rate : 31.250 FPS (1536 SPF)
Compression mode : Lossy
Stream size : 149 MiB (1%)
Title : AC-3 2.0 @ 192 kb/s # Ukraine
Language : Ukrainian
Service kind : Complete Main
Default : No
Forced : Yes

Audio #3
ID : 4
Format : AC-3
Format/Info : Audio Coding 3
Commercial name : Dolby Digital
Codec ID : A_AC3
Duration : 1 h 48 min
Bit rate mode : Constant
Bit rate : 640 kb/s
Channel(s) : 6 channels
Channel layout : L R C LFE Ls Rs
Sampling rate : 48.0 kHz
Frame rate : 31.250 FPS (1536 SPF)
Compression mode : Lossy
Stream size : 497 MiB (4%)
Title : AC-3 5.1 @ 640 kb/s
Language : English
Service kind : Complete Main
Default : No
Forced : No

Text #1
ID : 5
Format : UTF-8
Codec ID : S_TEXT/UTF8
Codec ID/Info : UTF-8 Plain Text
Duration : 1 h 47 min
Bit rate : 68 b/s
Count of elements : 868
Stream size : 54.3 KiB (0%)
Title : Full
Language : Ukrainian
Default : No
Forced : No

Text #2
ID : 6
Format : UTF-8
Codec ID : S_TEXT/UTF8
Codec ID/Info : UTF-8 Plain Text
Duration : 1 h 39 min
Bit rate : 1 b/s
Count of elements : 23
Stream size : 1.17 KiB (0%)
Title : Forced
Language : English
Default : No
Forced : No

Text #3
ID : 7
Format : UTF-8
Codec ID : S_TEXT/UTF8
Codec ID/Info : UTF-8 Plain Text
Duration : 1 h 40 min
Bit rate : 36 b/s
Count of elements : 814
Stream size : 27.0 KiB (0%)
Title : Full
Language : English
Default : No
Forced : No
Скріншоти







Подяка за українські доріжки: Breniak - зведення, xslim - запис з ТБ.
Субтитри українською - leicheman
Українізація постера - FireStar

Джерело: &
Особиста оцінка: 8 - мені сподобалося



Срібний реліз (на рейтинг впливає 50% завантаженого)
 Трекер:    Зареєстрований   

Завантажити / скачати фільм українською



відео для новачків



 Зареєстрований:   2021-01-07 20:34
 Розмір:   13.52 GB 
 Оцінка фільму:   10/10 (Голосів: 9)
   
Estranded 
VIP


З нами з: 09.02.14
Востаннє: 19.01.21
Повідомлень: 1541

2019-09-13 08:16  
Друга частина на висоті, вона мені навіть більше сподобалася ніж перша. Сюжет тут ще цікавіший.
9/10 — чудове продовження

Додано через 23 секунди:

Форкуш
Так, я теж шукав.

Argentum 
VIP


З нами з: 25.09.11
Востаннє: 19.01.21
Повідомлень: 274

2021-01-07 20:50  
Реліз оновлено. Додано доріжку українською від CINE+ та субтитри українською. Прохання перезавантажити торрент.

Ваш часовий пояс: GMT + 2 Години

Нова тема   Відповісти