Село на мільйон (2 сезон) (2017) 720p

Нові коментарі

Нова тема   Відповісти
Автор Повідомлення
ak1980 
Новенький


З нами з: 06.07.14
Востаннє: 04.10.20
Повідомлень: 12

2017-12-26 20:04  
Село на мільйон (2 сезон) (2017) 720p



Жанр: комедія
Країна: Україна

Кінокомпанія: 1+1 Продакшн
Режисер: Бата Недич
Актори: Дмитро Сова, Анна Кошмал, Костянтин Войтенко, Євген Капорін, Анатолій Хостікоєв, Наталя Сумська, Тетяна Зіновенко, Юрій Горбунов, Олена Стефанська, Марк Дробот, Володимир Задніпровський

Сюжет:
Село на мільйон 2 сезон — це продовження нового комедійного серіалу від телеканалу 1+1
Головні герої серіалу — три онука Катя, Коля і Тимур, яким дісталося у спадок від свого діда 1 мільйон євро.
Однак отримати це багатство вони зможуть тільки в тому випадку, якщо виїдуть з своїх міст і будуть жити в селі на Західній Україні, де власне і жив їхній дід.
Найголовніше умова отримання заповіту — це те, що село не можна залишати більше, ніж на добу години. Також умов є проживання претендентів на спадщину в селі не менше року.
Якщо правила не будуть дотримуватися, то всі спадок буде передано в місцева сільська рада.
Місцеві жителі, які також хочуть це спадок, збираються влаштувати приїжджим городянам веселе життя.

Тривалість: 1 серія: ~ 00:48:00 (цілком серій: 12)

Якість: 720p

Відео:
кодек:
розмір кадру: 1280 х 720
бітрейт: ~ 978 кб/с

Аудіо:
мова: українська, російська
переклад: оригінал
кодек: 2.0
бітрейт: 126 кб/с
"Info:"

General
Complete name : C:\Videos\Selo_na_milyon_(2_sezon)_(2017)\Село на мільйон 2 сезон 01 серія.mp4
Format : MPEG-4
Format profile : Base Media / Version 2
Codec ID : mp42 (isom/mp42)
File size : 401 MiB
Duration : 50 min 39 s
Overall bit rate mode : Variable
Overall bit rate : 1 107 kb/s
Encoded date : UTC 2017-11-21 17:19:46
Tagged date : UTC 2017-11-21 17:19:46
gsst : 0
gstd : 3039213

Video
ID : 1
Format : AVC
Format/Info : Advanced Video Codec
Format profile : [email protected]
Format settings : CABAC / 3 Ref Frames
Format settings, CABAC : Yes
Format settings, RefFrames : 3 frames
Codec ID : avc1
Codec ID/Info : Advanced Video Coding
Duration : 50 min 39 s
Bit rate : 978 kb/s
Width : 1 280 pixels
Height : 720 pixels
Display aspect ratio : 16:9
Frame rate mode : Constant
Frame rate : 25.000 FPS
Color space : YUV
Chroma subsampling : 4:2:0
Bit depth : 8 bits
Scan type : Progressive
Bits/(Pixel*Frame) : 0.042
Stream size : 354 MiB (88%)
Title : ISO Media file produced by Google Inc. Created on: 11/21/2017.
Encoded date : UTC 2017-11-21 17:19:46
Tagged date : UTC 2017-11-21 17:19:46
Color range : Limited
Color primaries : BT.709
Transfer characteristics : BT.709
Matrix coefficients : BT.709

Audio
ID : 2
Format :
Format/Info : Advanced Audio Codec
Format profile : LC
Codec ID : mp4a-40-2
Duration : 50 min 39 s
Bit rate mode : Variable
Bit rate : 126 kb/s
Channel(s) : 2 channels
Channel positions : Front: L R
Sampling rate : 44.1 kHz
Frame rate : 43.066 FPS (1024 SPF)
Compression mode : Lossy
Stream size : 45.5 MiB (11%)
Title : ISO Media file produced by Google Inc. Created on: 11/21/2017.
Encoded date : UTC 2017-11-21 17:19:46
Tagged date : UTC 2017-11-21 17:19:46
"Скріншоти:"



Золотий реліз (завантажене не впливає на рейтинг)
 Трекер:    Зареєстрований   

Завантажити / скачати український серіал



відео для новачків



 Зареєстрований:   2017-12-26 20:14
 Розмір:   4.5 GB 
 Оцінка серіалу:   6.1/10 (Голосів: 34)
   
0xDADA11C7 
Новенький


З нами з: 20.02.14
Востаннє: 22.11.20
Повідомлень: 12

2017-12-27 02:25  
Цитата:
то всі спадок буде передано в місцева сільська рада.

Я читаю як "Смерть людинам! Слава роботам!"

selb 
Відео Гуртом - підтримка та поширення
Відео Гуртом - підтримка та поширення


З нами з: 13.01.16
Востаннє: 23.11.20
Повідомлень: 565

2017-12-27 09:18  
0xDADA11C7
Весь опис у такому стилю. І не лише у цьому релізі.

ua2004 
Відео Гуртом - фільмокрай
Відео Гуртом - фільмокрай


З нами з: 31.01.08
Востаннє: 23.11.20
Повідомлень: 3208

2017-12-27 19:29  
ak1980 написано:
село не можна залишати більше, ніж на добу години

Не знав, що година складається з доби.

PaBLo.Che 
VIP


З нами з: 20.04.09
Востаннє: 18.11.20
Повідомлень: 289

2017-12-28 14:04  
Знов україномовне село — тупі селюки, а кацапомовні — розумні гарадскіє?
htaket 
Новенький


З нами з: 23.06.15
Востаннє: 22.11.20
Повідомлень: 11

2018-01-06 11:10  
Що за фігня? То скачує, то ні!
htaket 
Новенький


З нами з: 23.06.15
Востаннє: 22.11.20
Повідомлень: 11

2018-02-25 23:34  
Гарний серіал!
yuriksos 
Новенький


З нами з: 08.07.15
Востаннє: 23.11.20
Повідомлень: 4

2018-11-02 11:13  
Чому немає роздачі?
Sllavko 
Поважний учасник


З нами з: 10.06.12
Востаннє: 23.11.20
Повідомлень: 208

2020-02-03 22:39  
PaBLo.Che написано:
Знов україномовне село — тупі селюки, а кацапомовні — розумні гарадскіє?

як на диво - ні

donnelly 
Новенький


З нами з: 30.07.20
Востаннє: 29.08.20
Повідомлень: 1

2020-08-29 10:00  
Чому немає роздачі?
feron9 
Попереджень: 1
Попереджень: 1 


З нами з: 07.11.17
Востаннє: 23.11.20
Повідомлень: 38

2020-09-24 23:44  
Село одним словом.
Ваш часовий пояс: GMT + 2 Години

Нова тема   Відповісти