Ідентифікація Борна / The Bourne Identity (2002) 1080p Ukr/Eng | Sub Eng

Нові коментарі

Нова тема   Відповісти
Автор Повідомлення
Argentum 
Поважний учасник


З нами з: 25.09.11
Востаннє: 18.03.19
Повідомлень: 178

2017-12-25 13:55  
Ідентифікація Борна / The Bourne Identity (2002) 1080p Ukr/Eng | Sub Eng

Ідентифікація Борна / The Bourne Identity (2002) 1080p Ukr/Eng | Sub Eng


Жанр: бойовик, трилер, екшн, пригодницький
Країна: США



Кінокомпанія: Universal Pictures, Kennedy/Marshall Company
Режисер: Даг Лайман
Актори: Мет Деймон, Франка Потенте, Кріс Купер, Клайв Овен, Джулія Стайлз, Брайан Кокс та інші.

Сюжет:
Посеред моря італійські риболови виловлюють ледь живого Джейсона. Страждаючий амнезією, Джейсон виявляє, що на нього полюють таємничі кілери. Він — володар блискучих навиків в стрілянині, лінгвістиці і самообороні, що говорить про небезпечне минуле. За підтримкою Марі, Джейсон вплутується в небезпечну гру, щоб зрозуміти, хто він і чому кожен, з ким він стикається на шляху, жадає його смерті.


Тривалість: 01:58:37 (Limited Edition)
Якість:
Відео:
кодек:
розмір кадру: 1920 х 816
бітрейт: 14050 кб/с

Аудіо # 1:
мова: українська
переклад: багатоголосий закадровий
кодек: 2.0
бітрейт: 192 кб/с

Аудіо # 2:
мова: англійська
переклад: оригінал
кодек: 5.1
бітрейт: 640 кб/с

Субтитри:
мова: англійська
тип: пререндерні
формат: *.pgs
Info
General
Unique ID : 64687582602363433515984782556497831822 (0x30AA600F7DFD8F9C8103382C22D9E78E)
Complete name :The Bourne Identity (2002) [Ukr, Eng] 1080p [Hurtom].
Format :
Format version : Version 4 / Version 2
File size : 12.4 GiB
Duration : 1 h 58 min
Overall bit rate : 14.9 Mb/s
Movie name : The Bourne Identity (2002)
Encoded date : UTC 2017-12-23 19:51:09
Writing application : v19.0.0 ('Brave Captain') 64-bit
Writing library : libebml v1.3.5 + v1.4.8
Attachments : IdentBourne_1.jpeg

Video
ID : 1
Format : AVC
Format/Info : Advanced Video Codec
Format profile : [email protected]
Format settings : CABAC / 5 Ref Frames
Format settings, CABAC : Yes
Format settings, ReFrames : 5 frames
Codec ID : V_MPEG4/ISO/AVC
Duration : 1 h 58 min
Bit rate : 14.1 Mb/s
Width : 1 920 pixels
Height : 816 pixels
Display aspect ratio : 2.35:1
Frame rate mode : Constant
Frame rate : 23.976 (24000/1001) FPS
Color space : YUV
Chroma subsampling : 4:2:0
Bit depth : 8 bits
Scan type : Progressive
Bits/(Pixel*Frame) : 0.374
Stream size : 11.6 GiB (94%)
Title : AVC @ 14050 Kbps
Writing library : core 148 r2795 aaa9aa8
Encoding settings : cabac=1 / ref=5 / deblock=1:-2:-2 / analyse=0x3:0x133 / me=umh / subme=11 / psy=1 / psy_rd=0,30:0,30 / mixed_ref=1 / me_range=48 / chroma_me=1 / trellis=2 / 8x8dct=1 / cqm=0 / deadzone=21,11 / fast_pskip=0 / chroma_qp_offset=-4 / threads=6 / lookahead_threads=1 / sliced_threads=0 / nr=0 / decimate=1 / interlaced=0 / bluray_compat=0 / constrained_intra=0 / bframes=8 / b_pyramid=2 / b_adapt=2 / b_bias=0 / direct=3 / weightb=1 / open_gop=0 / weightp=2 / keyint=240 / keyint_min=24 / scenecut=40 / intra_refresh=0 / rc_lookahead=60 / rc=2pass / mbtree=0 / bitrate=14050 / ratetol=1,0 / qcomp=0,60 / qpmin=0 / qpmax=69 / qpstep=4 / cplxblur=20,0 / qblur=0,5 / vbv_maxrate=62500 / vbv_bufsize=78125 / nal_hrd=none / filler=0 / ip_ratio=1,40 / pb_ratio=1,30 / aq=1:1,00
Language : English
Default : Yes
Forced : Yes
Color range : Limited
Color primaries : BT.709
Transfer characteristics : BT.709
Matrix coefficients : BT.709

Audio #1
ID : 2
Format : AC-3
Format/Info : Audio Coding 3
Codec ID : A_AC3
Duration : 1 h 58 min
Bit rate mode : Constant
Bit rate : 192 kb/s
Channel(s) : 2 channels
Channel positions : Front: L R
Sampling rate : 48.0 kHz
Frame rate : 31.250 FPS (1536 SPF)
Bit depth : 16 bits
Compression mode : Lossy
Stream size : 163 MiB (1%)
Title : 2.0 @ 192 Kbps
Language : Ukrainian
Service kind : Complete Main
Default : Yes
Forced : Yes

Audio #2
ID : 3
Format : AC-3
Format/Info : Audio Coding 3
Codec ID : A_AC3
Duration : 1 h 58 min
Bit rate mode : Constant
Bit rate : 640 kb/s
Channel(s) : 6 channels
Channel positions : Front: L C R, Side: L R, LFE
Sampling rate : 48.0 kHz
Frame rate : 31.250 FPS (1536 SPF)
Bit depth : 16 bits
Compression mode : Lossy
Stream size : 543 MiB (4%)
Title : 5.1 @ 640 Kbps
Language : English
Service kind : Complete Main
Default : No
Forced : No

Text
ID : 4
Format : PGS
Codec ID : S_HDMV/PGS
Codec ID/Info : Picture based subtitle format used on BDs/HD-DVDs
Duration : 1 h 51 min
Bit rate : 29.1 kb/s
Count of elements : 2198
Stream size : 23.2 MiB (0%)
Title : Full
Language : English
Default : No
Forced : No
Скріншоти






Подяка за українську доріжку: Breniak - зведення, igor911 - синхронізація під версію Limited Edition, xslim - запис з ТБ; українізація постера - FireStar

Джерело: &
Особиста оцінка: 8 - мені сподобалося



Срібний реліз (на рейтинг впливає 50% завантаженого)
 Трекер:    Зареєстрований   

Завантажити / скачати фільм українською



відео для новачків



 Зареєстрований:   2017-12-25 13:55
 Розмір:   12.35 GB 
 Оцінка фільму:   10/10 (Голосів: 6)
   
Wowatorrent 
Поважний учасник


З нами з: 23.03.16
Востаннє: 18.03.19
Повідомлень: 161

2018-01-29 01:12  
Зробіть, будь ласка, 720.
igor911 
Відео Гуртом
Відео Гуртом


З нами з: 18.01.08
Востаннє: 18.03.19
Повідомлень: 12172

2018-01-29 01:25  
Wowatorrent, вже давно зроблено https://toloka.to/t61723
Цитата:
>>> Усі релізи усіх частин Борна на Гуртом <<<

Wowatorrent 
Поважний учасник


З нами з: 23.03.16
Востаннє: 18.03.19
Повідомлень: 161

2018-01-29 01:53  
igor911,дякую. Просто шукав саме Ідентифікацію Борна, і пошук не видав цей реліз.
Ваш часовий пояс: GMT + 2 Години

Нова тема   Відповісти