Віктор Франкенштейн / Victor Frankenstein (2015) Remux 1080p Ukr/Eng | Sub Ukr/Eng

Нові коментарі

Нова тема   Відповісти
Останній раз роздавалося Kiara (2020-08-15)
Автор Повідомлення
IronBee 
Поважний учасник


З нами з: 08.02.10
Востаннє: 13.08.20
Повідомлень: 231

2017-12-25 13:14  
Віктор Франкенштейн / Victor Frankenstein (2015) Remux 1080p Ukr/Eng | Sub Ukr/Eng

Віктор Франкенштейн / Victor Frankenstein (2015) Remux 1080p Ukr/Eng | Sub Ukr/Eng


Жанр: драма, трилер, жахи, фантастика
Країна: США



Кінокомпанія: Twentieth Century Fox
Режисер: Пол МакГіган
Актори: Джеймс МакЕвой, Деніел Редкліфф, Джессіка Браун Фіндлі, Чарльз Денс, Ендрю Скотт, Марк Гетісс, Луїза Брілі, Фредді Фокс, Деніел Мейс, Валін Кейн та інші

Сюжет:
Відома легенда розказана знову, і тепер з боку помічника вченого Віктора Франкенштейна - Ігоря Страусмана. Геніальний розум вдається до неймовірно радикальних методів у своїх експериментах. Він має благородну мрію: допомогти людству шляхом інноваційних досліджень у прагненні до безсмертя. Асистент, який почав дружити з Франкенштейном, коли той ще був молодим студентом-медиком, стає свідком темних змін у вченому. Експерименти стали заходити надто далеко, а одержимість друга призводить до страшних наслідків, коли ним починають цікавитися люди, що стоять при владі.


Тривалість: 01:50:24
Якість: Remux 1080p

Відео:
кодек:
розмір кадру: 1920 х 1080
бітрейт: 30,2 Mб/с

Аудіо # 1:
мова: українська (Blu-ray)
переклад: професійний дубльований
кодек: 5.1
бітрейт: 448 кб/с

Аудіо # 2:
мова: англійська
переклад: оригінал
кодек: -HD MA 7.1
бітрейт: 4984 кб/с

Аудіо # 3:
мова: англійська
переклад: коментарі
кодек: 5.1
бітрейт: 448 кб/с

Субтитри # 1:
мова: українська (Forced)
тип: програмні (м'які)
формат: *.srt

Субтитри # 2:
мова: українська (Full)
тип: програмні (м'які)
формат: *.srt

Субтитри # 3:
мова: англійська (Full)
тип: програмні (м'які)
формат: *.srt
Info
General
Unique ID : 115747704507019624084281140154794789524 (0x5714326F464B55B8283CE18D30744A94)
Complete name : E:\Films\Віктор Франкенштейн Victor Frankenstein (2015) Remux 1080p UkrEng Sub UkrEng[Hurtom].
Format :
Format version : Version 4 / Version 2
File size : 27.7 GiB
Duration : 1 h 49 min
Overall bit rate mode : Variable
Overall bit rate : 36.0 Mb/s
Movie name : BLUEBIRD
Encoded date : UTC 2017-12-24 18:50:41
Writing application : v19.0.0 ('Brave Captain') 64-bit
Writing library : libebml v1.3.5 + v1.4.8

Video
ID : 1
Format : AVC
Format/Info : Advanced Video Codec
Format profile : [email protected]
Format settings : CABAC / 4 Ref Frames
Format settings, CABAC : Yes
Format settings, ReFrames : 4 frames
Codec ID : V_MPEG4/ISO/AVC
Duration : 1 h 49 min
Bit rate mode : Variable
Bit rate : 30.2 Mb/s
Maximum bit rate : 31.7 Mb/s
Width : 1 920 pixels
Height : 1 080 pixels
Display aspect ratio : 16:9
Frame rate mode : Constant
Frame rate : 23.976 (24000/1001) FPS
Color space : YUV
Chroma subsampling : 4:2:0
Bit depth : 8 bits
Scan type : Progressive
Bits/(Pixel*Frame) : 0.607
Stream size : 23.1 GiB (84%)
Default : Yes
Forced : No

Audio #1
ID : 2
Format : AC-3
Format/Info : Audio Coding 3
Codec ID : A_AC3
Duration : 1 h 49 min
Bit rate mode : Constant
Bit rate : 448 kb/s
Channel(s) : 6 channels
Channel positions : Front: L C R, Side: L R, LFE
Sampling rate : 48.0 kHz
Frame rate : 31.250 FPS (1536 SPF)
Bit depth : 16 bits
Compression mode : Lossy
Stream size : 352 MiB (1%)
Title : DUB, Blu-ray EUR
Language : Ukrainian
Service kind : Complete Main
Default : No
Forced : No

Audio #2
ID : 3
Format :
Format/Info : Digital Theater Systems
Format profile : MA / ES Matrix / Core
Codec ID : A_DTS
Duration : 1 h 49 min
Bit rate mode : Variable / Constant / Constant
Bit rate : 4 984 kb/s / 1 509 kb/s / 1 509 kb/s
Channel(s) : 8 channels / 7 channels / 6 channels
Channel positions : Front: L C R, Side: L R, Back: L R, LFE / Front: L C R, Side: L R, Back: C, LFE / Front: L C R, Side: L R, LFE
Sampling rate : 48.0 kHz
Frame rate : 93.750 FPS (512 SPF)
Bit depth : 24 bits
Compression mode : Lossless / Lossy / Lossy
Stream size : 3.82 GiB (14%)
Language : English
Default : No
Forced : No

Audio #3
ID : 4
Format : AC-3
Format/Info : Audio Coding 3
Codec ID : A_AC3
Duration : 1 h 49 min
Bit rate mode : Constant
Bit rate : 448 kb/s
Channel(s) : 6 channels
Channel positions : Front: L C R, Side: L R, LFE
Sampling rate : 48.0 kHz
Frame rate : 31.250 FPS (1536 SPF)
Bit depth : 16 bits
Compression mode : Lossy
Stream size : 352 MiB (1%)
Language : English
Service kind : Complete Main
Default : No
Forced : No

Text #1
ID : 5
Format : UTF-8
Codec ID : S_TEXT/UTF8
Codec ID/Info : UTF-8 Plain Text
Duration : 1 h 48 min
Bit rate : 1 b/s
Count of elements : 19
Stream size : 992 Bytes (0%)
Title : Forced
Language : Ukrainian
Default : No
Forced : No

Text #2
ID : 6
Format : UTF-8
Codec ID : S_TEXT/UTF8
Codec ID/Info : UTF-8 Plain Text
Duration : 1 h 49 min
Bit rate : 78 b/s
Count of elements : 1165
Stream size : 62.4 KiB (0%)
Language : Ukrainian
Default : No
Forced : No

Text #3
ID : 7
Format : UTF-8
Codec ID : S_TEXT/UTF8
Codec ID/Info : UTF-8 Plain Text
Duration : 1 h 42 min
Bit rate : 51 b/s
Count of elements : 1379
Stream size : 39.0 KiB (0%)
Language : English
Default : No
Forced : No

Menu
00:00:00.000 : en:Chapter 1
00:04:07.372 : en:Chapter 2
00:08:06.903 : en:Chapter 3
00:11:14.674 : en:Chapter 4
00:15:20.378 : en:Chapter 5
00:18:58.554 : en:Chapter 6
00:22:27.263 : en:Chapter 7
00:26:06.857 : en:Chapter 8
00:28:59.237 : en:Chapter 9
00:32:02.379 : en:Chapter 10
00:36:01.451 : en:Chapter 11
00:41:11.427 : en:Chapter 12
00:46:17.692 : en:Chapter 13
00:51:48.480 : en:Chapter 14
00:56:42.691 : en:Chapter 15
00:59:55.509 : en:Chapter 16
01:02:37.587 : en:Chapter 17
01:06:57.180 : en:Chapter 18
01:11:25.198 : en:Chapter 19
01:15:14.051 : en:Chapter 20
01:18:10.352 : en:Chapter 21
01:21:06.278 : en:Chapter 22
01:25:20.490 : en:Chapter 23
01:28:17.542 : en:Chapter 24
01:33:35.276 : en:Chapter 25
01:37:51.783 : en:Chapter 26
01:41:32.920 : en:Chapter 27
01:43:34.375 : en:Chapter 28
Скріншоти




Джерело: &
Особиста оцінка: 0 - не дивився


Золотий реліз (завантажене не впливає на рейтинг)
 Трекер:    Зареєстрований   

Завантажити / скачати фільм українською



відео для новачків



 Зареєстрований:   2017-12-25 13:14
 Розмір:   27.66 GB 
 Оцінка фільму:   8.9/10 (Голосів: 10)
   
Ваш часовий пояс: GMT + 2 Години

Нова тема   Відповісти