Стар проти Сил Зла (Сезон 3, Серії 1 з 21) / Star vs. The Forces of Evil (Season 3, Episodes 1 - 21) (2017) 720р

Нові коментарі

Нова тема   Відповісти
Автор Повідомлення
AdrianZP 
Свій


З нами з: 28.08.14
Востаннє: 17.01.18
Повідомлень: 59

2017-12-24 15:45  
Стар проти Сил Зла (Сезон 3, Серії 1 з 21) / Star vs. The Forces of Evil (Season 3, Episodes 1 - 21) (2017) 720р

Стар проти Сил Зла (Сезон 3, Серії 1 з 21) / Star vs. The Forces of Evil (Season 3, Episodes 1 - 21) (2017) 720р

На переклад і озвучення 20 серій потрібно зібрати 7 000 грн.
Станом на 14.01.2018 зібрано 3110 грн.



Жанр: пригоди, комедія
Країна: США



Кінокомпанія: Disney XD
Режисер: Девід Уоссон
Актори/ролі озвучують: Еден Шер, Адам МакАртур, Джефф Беннетт та ін.

Сюжет:
Історія продовжить свої події після неочікуваних слів від мати Стар, що Тофі знову повернувся. Через, що королева Мун була змушена забрати Стар зі всесвіту "Земля" до королівства М'юні. Наразі наші герої пустилися берега та незабаром їх очікує запекла сутичка з Тофі.


Тривалість: 1 серія: 23:00 (цілком серій: 21)
Перелік серій
Ep1 - Битва за М'юні: Назад до М'юні / Битва за М'юні: Відважна Мун
Ep2 - Battle for Mewni: Book Be Gone/Battle for Mewni: Marco and the King
Ep3 - Battle for Mewni: Puddle Defender/Battle for Mewni: King Ludo
Ep4 - Battle for Mewni: Toffee
Ep5 - Scent of a Hoodie/Rest in Pudding
Ep6 - Club Snubbed/Stranger Danger
Ep7 - Demoncism/Sophomore Slump
Ep8 - Lint Catcher/Trial by Square
Ep9 - Princess Turdina/Starfari
Ep10 - Sweet Dreams/Lava Lake Beach
Ep11 - Death Peck/Ponymonium
Ep12 - Night Life/Deep Dive
Ep13 - Monster Bash
Ep14 - Stump Day/Holiday Spellcial
...
Якість:
Відео:
кодек:
розмір кадру: 1280 х 720
бітрейт: ~ 3000 кб/с

Аудіо:
мова: українська
переклад: багатоголосий закадровий
кодек: 2.0
бітрейт: 256 кб/с
Скріншоти



Звіт Info
Format :
Format version : Version 4 / Version 2
File size : 517 MiB
Duration : 22 min 17 s
Overall bit rate : 3 243 kb/s
Encoded date : UTC 2018-01-12 18:48:57
Writing application : mkvmerge v9.4.0 ('Knurl') 64bit
Writing library : libebml v1.3.4 + libmatroska v1.4.5
Cover : Yes
Attachments : cover.jpg

Video
ID : 1
Format : AVC
Format/Info : Advanced Video Codec
Format profile : [email protected]
Format settings, CABAC : Yes
Format settings, ReFrames : 5 frames
Codec ID : V_MPEG4/ISO/AVC
Duration : 22 min 17 s
Bit rate : 3 000 kb/s
Width : 1 280 pixels
Height : 720 pixels
Display aspect ratio : 16:9
Frame rate mode : Constant
Frame rate : 23.976 (24000/1001) FPS
Color space : YUV
Chroma subsampling : 4:2:0
Bit depth : 8 bits
Scan type : Progressive
Bits/(Pixel*Frame) : 0.136
Stream size : 476 MiB (92%)
Writing library : core 130 r2273 b3065e6
Encoding settings : cabac=1 / ref=5 / deblock=1:0:0 / analyse=0x3:0x113 / me=umh / subme=8 / psy=1 / psy_rd=1.00:0.00 / mixed_ref=1 / me_range=16 / chroma_me=1 / trellis=1 / 8x8dct=1 / cqm=0 / deadzone=21,11 / fast_pskip=1 / chroma_qp_offset=-2 / threads=12 / lookahead_threads=2 / sliced_threads=0 / nr=0 / decimate=1 / interlaced=0 / bluray_compat=0 / constrained_intra=0 / bframes=3 / b_pyramid=2 / b_adapt=2 / b_bias=0 / direct=3 / weightb=1 / open_gop=0 / weightp=2 / keyint=240 / keyint_min=24 / scenecut=40 / intra_refresh=0 / rc_lookahead=50 / rc=abr / mbtree=1 / bitrate=3000 / ratetol=1.0 / qcomp=0.60 / qpmin=0 / qpmax=69 / qpstep=4 / vbv_maxrate=25000 / vbv_bufsize=31250 / nal_hrd=none / ip_ratio=1.40 / aq=1:1.00
Language : Ukrainian
Default : Yes
Forced : No
Color range : Limited
Color primaries : BT.709
Transfer characteristics : BT.709
Matrix coefficients : BT.709

Audio
ID : 2
Format :
Format/Info : Advanced Audio Codec
Format profile : LC
Codec ID : A_AAC
Duration : 22 min 17 s
Bit rate : 256 kb/s
Channel(s) : 2 channels
Channel positions : Front: L R
Sampling rate : 48.0 kHz
Frame rate : 46.875 FPS (1024 spf)
Compression mode : Lossy
Stream size : 40.8 MiB (8%)
Title : FanVoxUA
Language : Ukrainian
Default : Yes
Forced : No
Озвучення виконано:
Переклад: Наталя Плотник
Ролі озвучили: AdrianZP, Snovyda та MariAm
Робота зі звуком: AdrianZP
Постер: Лунсар
Окрема подяка
Дякуємо всім хто долучився перекласти 1й епізод на паляниці! Зокрема найактивнішим: _hellisa, bodar, nastya_1711, WonderWhy, Patriot_Ukr, romik9415
ТРЕЙЛЕР



Усі сезони Стар: тут

Особиста оцінка: 10 - Шикарний мульт!


Авторський реліз (завантажувати можна без реєстрації)
 Трекер:    Зареєстрований   

Завантажити / скачати мультфільм українською



відео для новачків



 Зареєстрований:   2018-01-14 13:34
 Розмір:   517 MB 
 Оцінка мультсеріалу:   10/10 (Голосів: 5)
   
AdrianZP 
Свій


З нами з: 28.08.14
Востаннє: 17.01.18
Повідомлень: 59

2017-12-24 15:45  
Озвучення першого епізоду вже почате. Наразі це АНОНС.
Patriot_ukr 
VIP


З нами з: 06.04.15
Востаннє: 17.01.18
Повідомлень: 2020

2017-12-24 16:25  
Перенесіть у анонси
AdrianZP 
Свій


З нами з: 28.08.14
Востаннє: 17.01.18
Повідомлень: 59

2017-12-24 17:46  
Patriot_ukr
Якби ж я міг)

-_-B_E_N_D_E_R-_- 
Відео Гуртом - фільмокрай
Відео Гуртом - фільмокрай


З нами з: 09.01.14
Востаннє: 18.01.18
Повідомлень: 568

2017-12-24 17:51  
AdrianZP
там знизу зліва є кнопка, 'перенести тему'

bot 
робот


З нами з: 30.09.07
Востаннє: 26.05.05
Повідомлень: 18087

2017-12-24 17:53  
Тему перенесено з Мультсеріали до форуму Анонси релізів


AdrianZP

bot 
робот


З нами з: 30.09.07
Востаннє: 26.05.05
Повідомлень: 18087

2018-01-14 13:32  
Тему перенесено з Анонси релізів до форуму Мультсеріали в HD


AdrianZP

AdrianZP 
Свій


З нами з: 28.08.14
Востаннє: 17.01.18
Повідомлень: 59

2018-01-14 13:38  
ДОДАНО 1 СЕРІЮ!

На озвучення всіх епізодів триває збір коштів!
Станом на 14.01.2018 зібрано 3110 грн з 7000 грн

Ваш часовий пояс: GMT + 2 Години

Нова тема   Відповісти