Вбивство / Forbrydelsen (Сезон 3) (2012) 720p Ukr/Dan

Нові коментарі

Нова тема   Відповісти
Автор Повідомлення
sergiyko.5 
Забанено
Забанено


З нами з: 25.02.16
Востаннє: 29.10.20
Повідомлень: 3650

2017-12-24 15:23  
Вбивство / Forbrydelsen (Сезон 3) (2012) 720p Ukr/Dan

Вбивство / Forbrydelsen (Сезон 3) (2012) 720p Ukr/Dan

Жанр: детектив, драма, кримінал
Країна: Данія
Кінокомпанія: Danmarks Radio, Norsk Rikskringkasting, Sveriges Television
Режисер: Наташа Артю
Актори: Софі Гробьоль, Ніколай Лі Каас, Мортен Сюрбалл, Сігурд Холмен Ле Ду, Андерс Бертельсен, Хелле Фагралід, Стіг Хоффмаєр, Олаф Йохансен, Тріне Пальсен, Джонатан Спенг

Сюжет:
Серіал «Вбивство 3» (Forbrydelsen III) - третя частина детективних розслідувань датської поліцейської Сари Лунд. Сара намагається перейти на більш спокійну роботу, але в останній момент їй доводиться розслідувати нібито випадкове вбивство моряка і зіткнутися зі світовою фінансовою кризою.




Тривалість: 1 серія: 58:00 (цілком серій: 10 з 10)
Якість:

Відео: кодек: розмір кадру: 1280 х 720 бітрейт: 5000 кб/с
Аудіо # 1: мова: українська переклад: багатоголосий закадровий кодек: 2.0 бітрейт: 192 кб/с
Аудіо # 2: мова: данська переклад: оригінал кодек: 5.1 бітрейт: 640 кб/с
Джерело озвучення: Донбас ТБ
Субтитри: мова: українська тип: програмні (м'які) формат: *.srt - на неперекладені місця
Перелік серій
Episode #3.1
Episode #3.2
Episode #3.3
Episode #3.4
Episode #3.5
Episode #3.6
Episode #3.7
Episode #3.8
Episode #3.9
Episode #3.10
Про файл:
General
Unique ID : 171934290115605092312627558624457818655 (0x815956FBD37831136EDD79C8AEEA821F)
Complete name : D:\Torrents\FILMS\Forbrydelsen 720p \Forbrydelsen S03 720p \Forbrydelsen.S03E01.720p..Ukr.Dan.
Format :
Format version : Version 4 / Version 2
File size : 2.37 GiB
Duration : 57 min 52 s
Overall bit rate : 5 868 kb/s
Movie name : Forbrydelsen S03 720p by sergiyko
Encoded date : UTC 2017-12-24 12:18:53
Writing application : v19.0.0 ('Brave Captain') 64-bit
Writing library : libebml v1.3.5 + v1.4.8

Video
ID : 1
Format : AVC
Format/Info : Advanced Video Codec
Format profile : [email protected]
Format settings : CABAC / 5 Ref Frames
Format settings, CABAC : Yes
Format settings, ReFrames : 5 frames
Codec ID : V_MPEG4/ISO/AVC
Duration : 57 min 52 s
Bit rate : 5 033 kb/s
Width : 1 280 pixels
Height : 720 pixels
Display aspect ratio : 16:9
Frame rate mode : Constant
Frame rate : 25.000 FPS
Color space : YUV
Chroma subsampling : 4:2:0
Bit depth : 8 bits
Scan type : Progressive
Bits/(Pixel*Frame) : 0.218
Stream size : 2.03 GiB (86%)
Title : S03E01
Writing library : core 129 r2230 1cffe9f
Encoding settings : cabac=1 / ref=5 / deblock=1:0:0 / analyse=0x3:0x113 / me=umh / subme=8 / psy=1 / psy_rd=1.00:0.00 / mixed_ref=1 / me_range=16 / chroma_me=1 / trellis=1 / 8x8dct=1 / cqm=0 / deadzone=21,11 / fast_pskip=1 / chroma_qp_offset=-2 / threads=6 / lookahead_threads=1 / sliced_threads=0 / nr=0 / decimate=1 / interlaced=0 / bluray_compat=0 / constrained_intra=0 / bframes=3 / b_pyramid=2 / b_adapt=2 / b_bias=0 / direct=3 / weightb=1 / open_gop=0 / weightp=2 / keyint=250 / keyint_min=25 / scenecut=40 / intra_refresh=0 / rc_lookahead=50 / rc=2pass / mbtree=1 / bitrate=5033 / ratetol=1.0 / qcomp=0.60 / qpmin=0 / qpmax=69 / qpstep=4 / cplxblur=20.0 / qblur=0.5 / ip_ratio=1.40 / aq=1:1.00
Language : English
Default : Yes
Forced : No

Audio #1
ID : 2
Format : AC-3
Format/Info : Audio Coding 3
Codec ID : A_AC3
Duration : 57 min 52 s
Bit rate mode : Constant
Bit rate : 192 kb/s
Channel(s) : 2 channels
Channel positions : Front: L R
Sampling rate : 48.0 kHz
Frame rate : 31.250 FPS (1536 SPF)
Bit depth : 16 bits
Compression mode : Lossy
Stream size : 79.5 MiB (3%)
Title : MOV
Language : Ukrainian
Service kind : Complete Main
Default : Yes
Forced : Yes

Audio #2
ID : 3
Format : AC-3
Format/Info : Audio Coding 3
Codec ID : A_AC3
Duration : 57 min 52 s
Bit rate mode : Constant
Bit rate : 640 kb/s
Channel(s) : 6 channels
Channel positions : Front: L C R, Side: L R, LFE
Sampling rate : 48.0 kHz
Frame rate : 31.250 FPS (1536 SPF)
Bit depth : 16 bits
Compression mode : Lossy
Stream size : 265 MiB (11%)
Title : Original
Language : Danish
Service kind : Complete Main
Default : No
Forced : No

Text
ID : 4
Format : UTF-8
Codec ID : S_TEXT/UTF8
Codec ID/Info : UTF-8 Plain Text
Duration : 20 min 18 s
Bit rate : 2 b/s
Count of elements : 7
Stream size : 398 Bytes (0%)
Language : Ukrainian
Default : Yes
Forced : Yes
Скріншоти:


Запис/зведення: sergiyko


Бронзовий реліз (на рейтинг впливає 75% завантаженого)
 Трекер:    Зареєстрований   

Завантажити / скачати серіал українською



відео для новачків



 Зареєстрований:   2017-12-26 16:52
 Розмір:   26.53 GB 
 Оцінка серіалу:   8.5/10 (Голосів: 13)
   
sergiyko.5 
Забанено
Забанено


З нами з: 25.02.16
Востаннє: 29.10.20
Повідомлень: 3650

2017-12-26 16:53  
Додав серії до повного третього сезону.
Bod_zik99 
VIP


З нами з: 28.12.13
Востаннє: 01.12.20
Повідомлень: 1442

2017-12-26 17:31  
Не знаєте часом,а серіал "Міст" там українською показують?
sergiyko.5 
Забанено
Забанено


З нами з: 25.02.16
Востаннє: 29.10.20
Повідомлень: 3650

2017-12-26 17:46  
Не знаю.
Neytreenor 
Відео Гуртом - запис з ТБ
Відео Гуртом - запис з ТБ


З нами з: 03.04.11
Востаннє: 01.12.20
Повідомлень: 2907

2017-12-26 17:55  
Bod_zik99 написано:
Не знаєте часом,а серіал "Міст" там українською показують?

Ніякою не показують.

Nykyphor 
Новенький


З нами з: 24.02.14
Востаннє: 01.12.20
Повідомлень: 7

2017-12-27 21:25  
Дуже сподобався серіал.
senya8710 
Новенький


З нами з: 12.11.12
Востаннє: 27.11.20
Повідомлень: 4

2017-12-28 23:12  
А де можна знайти два попередніх сезони?
trasylo 
Свій


З нами з: 24.12.16
Востаннє: 26.11.20
Повідомлень: 77

2018-01-05 12:39  
senya8710
Є перші два сезони римейку (The Killing) https://toloka.to/t49372

Cr4nch 
Новенький


З нами з: 02.08.16
Востаннє: 30.11.20
Повідомлень: 2

2018-01-07 19:17  
Українською правильно данської, а не датської
zaika 
VIP


З нами з: 01.07.12
Востаннє: 01.12.20
Повідомлень: 1243

2018-02-19 18:15  
trasylo Але це ж рімейк, а де попередні два сезони саме цього серіалу? Я в Інтернеті найшов в московитській озвучці. Дивитись звичайно не стану. Так все ж таки, чи є 1 і 2 сезони українською?
Ваш часовий пояс: GMT + 2 Години

Нова тема   Відповісти