Бігфут Молодший: Стань легендою! / The Son of Bigfoot (2017) 1080p Ukr/Eng | Sub Eng

Нові коментарі

Нова тема   Відповісти
Автор Повідомлення
Anonymous 







2017-12-21 20:52  
Бігфут Молодший: Стань легендою! / The Son of Bigfoot (2017) 1080p Ukr/Eng | Sub Eng



Жанр: анімація, комедія, пригодницький, сімейний
Країна: Франція, Бельгія



Кінокомпанія: nWave Pictures, StudioCanal, Belga Productions
Режисер: Джеремі Дегрусон / Jeremy Degruson, Бен Стассен / Ben Stassen
Актори: Сінда Адамс / Cinda Adams, Джорж Беббіт / George Babbit, Лайла Берзіньш / Laila Berzins, Джоі Кемен / Joey Camen, Джефф Дусетте / Jeff Doucette, Девід Епштейн / David Epstein, Паппі Фолкнер / Pappy Faulkner, Сенді Фокс / Sandy Fox, Кайл Геберт / Kyle Hebert, Маріев Герінгтон / Marieve Herington, Алексіс Ленг / Lex Lang, Юрій Ловенталь / Yuri Lowenthal, Джо Охман / Joe Ochman, Крістофер Л. Парсон / Christopher L. Parson, Тара Платт / Tara Platt, Майкл Соріч / Michael Sorich, Терренс Стоун / Terrence Stone, Джо Томас / Joe Thomas

Сюжет:
Головний герой мультфільму – хлопець на ім'я Адам. Його батько безслідно зник, коли він був ще зовсім малим. Хлопець завжди хотів зустрітися з татом, і його мріям судилося здійснитися. Вирушивши якось до лісу, він випадково натрапив на батька і дізнався, що походить з дуже давнього роду Бігфутів. Таких людей залишилося дуже мало і корпорація HairCo. прагне захопити батька Адама, щоб проводити на ньому свої експерименти. Несподівано хлопець виявляє в собі все більше спільного з Бігфутами. І справа не тільки в дуже великому розмірі ноги і прискореному рості волосся. Тепер Адам розуміє мову тварин.
Офіційний український трейлер + бонус:



бонус - як Сергій Притула озвучував Бігфута:

Вікова категорія: 6+

Тривалість: 01:32:15
Якість: 1080p
Відео:
кодек:
розмір кадру: 1920х1080
бітрейт: 12,6 Мб/с

Аудіо # 1:
мова: українська
переклад: професійний дубльований | студія ААА-sound
кодек: 2.0 [stereo]
бітрейт: 192 кб/с
Інформація про дубляж
Режисер дубляжу: Олександр Єфімов
Ролі дублювали: Віктор Григор'єв, Сергій Притула, Юлія Перенчук, Андрій Альохін, Павло Скороходько, Дмитро Гаврилов, Кирило Нікітенко, Андрій Федінчик, Дмитро Завадський, Катерина Брайковська, Ярослав Чорненький, Олена Узлюк, Анатолій Зіновенко та інші.

Фільм дубльовано студією ААА-sound у 2017 році на замовлення компанії Вольґа Україна.
Аудіо # 2:
мова: англійська
переклад: оригінал
кодек: 5.1
бітрейт: 640 кб/с

Субтитри # 1-2:
мова: англійська (повні, SDH)
тип: програмні (м'які)
формат: *.srt

Збережено оригінальні розділи, як на Blu-ray
Info
Код:
Complete name               : The Son of Bigfoot (2017) [Ukr,Eng sub.Eng] 1080p [Hurtom].
Format                      :
Format version              : Version 4 / Version 2
File size                   : 8.68 GiB
Duration                    : 1 h 32 min
Overall bit rate            : 13.5 Mb/s
Movie name                  : Бігфут Молодший: Стань легендою! / The Son of Bigfoot (2017) [Ukr,Eng sub.Eng] 1080p [Hurtom]
Released date               : 2017
Writing library             : libebml v1.3.5 + v1.4.8
Cover                       : Yes
Comment                     : http://www.imdb.com/title/tt5715410/
Attachments                 : cover.jpg
ARTIST                      : Сінда Адамс / Cinda Adams, Джорж Беббіт / George Babbit, Лайла Берзіньш / Laila Berzins, Джоі Кемен / Joey Camen, Джефф Дусетте / Jeff Doucette, Девід Епштейн / David Epstein, Паппі Фолкнер / Pappy Faulkner, Сенді Фокс / Sandy Fox, Кайл Геберт / Kyle Hebert, Маріев Герінгтон / Marieve Herington, Алексіс Ленг / Lex Lang, Юрій Ловенталь / Yuri Lowenthal, Джо Охман / Joe Ochman, Крістофер Л. Парсон / Christopher L. Parson, Тара Платт / Tara Platt, Майкл Соріч / Michael Sorich, Терренс Стоун / Terrence Stone, Джо Томас / Joe Thomas
DIRECTOR                    : Джеремі Дегрусон / Jeremy Degruson, Бен Стассен / Ben Stassen
GENRE                       : анімація, комедія, пригодницький, сімейний
SYNOPSIS                    : Головний герой мультфільму – хлопець на ім'я Адам. Його батько безслідно зник, коли він був ще зовсім малим. Хлопець завжди хотів зустрітися з татом, і його мріям судилося здійснитися. Вирушивши якось до лісу, він випадково натрапив на батька і дізнався, що походить з дуже давнього роду Бігфутів. Таких людей залишилося дуже мало і корпорація HairCo. прагне захопити батька Адама, щоб проводити на ньому свої експерименти. Несподівано хлопець виявляє в собі все більше спільного з Бігфутами. І справа не тільки в дуже великому розмірі ноги і прискореному рості волосся. Тепер Адам розуміє мову тварин...
Url                         : https://toloka.to/t85982

Video
ID                          : 1
Format                      : AVC
Format/Info                 : Advanced Video Codec
Format profile              : [email protected]
Format settings             : CABAC / 4 Ref Frames
Format settings, CABAC      : Yes
Format settings, ReFrames   : 4 frames
Codec ID                    : V_MPEG4/ISO/AVC
Duration                    : 1 h 32 min
Bit rate                    : 12.6 Mb/s
Width                       : 1 920 pixels
Height                      : 1 080 pixels
Display aspect ratio        : 16:9
Frame rate mode             : Constant
Frame rate                  : 23.976 (24000/1001) FPS
Color space                 : YUV
Chroma subsampling          : 4:2:0
Bit depth                   : 8 bits
Scan type                   : Progressive
Bits/(Pixel*Frame)          : 0.254
Stream size                 : 8.15 GiB (94%)
Title                       : Бігфут Молодший: Стань легендою! / The Son of Bigfoot (2017) 1080p
Writing library             : core 152 r2851 ba24899
Encoding settings           : cabac=1 / ref=4 / deblock=1:-3:-3 / analyse=0x3:0x113 / me=umh / subme=11 / psy=1 / psy_rd=1.05:0.00 / mixed_ref=1 / me_range=32 / chroma_me=1 / trellis=2 / 8x8dct=1 / cqm=0 / deadzone=21,11 / fast_pskip=0 / chroma_qp_offset=-2 / threads=12 / lookahead_threads=2 / sliced_threads=0 / nr=0 / decimate=0 / interlaced=0 / bluray_compat=0 / constrained_intra=0 / bframes=7 / b_pyramid=2 / b_adapt=2 / b_bias=0 / direct=3 / weightb=1 / open_gop=0 / weightp=2 / keyint=240 / keyint_min=23 / scenecut=40 / intra_refresh=0 / rc_lookahead=100 / rc=2pass / mbtree=0 / bitrate=12640 / ratetol=1.0 / qcomp=0.65 / qpmin=0 / qpmax=69 / qpstep=4 / cplxblur=20.0 / qblur=0.5 / vbv_maxrate=50000 / vbv_bufsize=62500 / nal_hrd=none / filler=0 / ip_ratio=1.30 / pb_ratio=1.20 / aq=1:0.85
Language                    : English
Default                     : Yes
Forced                      : No
Color range                 : Limited
Color primaries             : BT.709
Transfer characteristics    : BT.709
Matrix coefficients         : BT.709

Audio #1
ID                          : 2
Format                      : AC-3
Format/Info                 : Audio Coding 3
Codec ID                    : A_AC3
Duration                    : 1 h 32 min
Bit rate mode               : Constant
Bit rate                    : 192 kb/s
Channel(s)                  : 2 channels
Channel positions           : Front: L R
Sampling rate               : 48.0 kHz
Frame rate                  : 31.250 FPS (1536 SPF)
Bit depth                   : 16 bits
Compression mode            : Lossy
Stream size                 : 127 MiB (1%)
Title                       : Dub [ААА-sound, iTunes] 2.0 [stereo] 192 Kbps
Language                    : Ukrainian
Service kind                : Complete Main
Default                     : Yes
Forced                      : Yes

Audio #2
ID                          : 3
Format                      : AC-3
Format/Info                 : Audio Coding 3
Codec ID                    : A_AC3
Duration                    : 1 h 32 min
Bit rate mode               : Constant
Bit rate                    : 640 kb/s
Channel(s)                  : 6 channels
Channel positions           : Front: L C R, Side: L R, LFE
Sampling rate               : 48.0 kHz
Frame rate                  : 31.250 FPS (1536 SPF)
Bit depth                   : 16 bits
Compression mode            : Lossy
Stream size                 : 422 MiB (5%)
Title                       : Original, 5.1 640 Kbps
Language                    : English
Service kind                : Complete Main
Default                     : No
Forced                      : No

Text #1
ID                          : 4
Format                      : UTF-8
Codec ID                    : S_TEXT/UTF8
Codec ID/Info               : UTF-8 Plain Text
Duration                    : 1 h 25 min
Bit rate                    : 58 b/s
Count of elements           : 1251
Stream size                 : 36.8 KiB (0%)
Title                       : Eng full
Language                    : English
Default                     : No
Forced                      : No

Text #2
ID                          : 5
Format                      : UTF-8
Codec ID                    : S_TEXT/UTF8
Codec ID/Info               : UTF-8 Plain Text
Duration                    : 1 h 31 min
Bit rate                    : 72 b/s
Count of elements           : 1687
Stream size                 : 48.2 KiB (0%)
Title                       : Eng SDH
Language                    : English
Default                     : No
Forced                      : No

Menu
00:00:00.000                : en:00:00:00.000
00:07:24.194                : en:00:07:24.194
00:14:53.768                : en:00:14:53.768
00:22:11.789                : en:00:22:11.789
00:30:27.492                : en:00:30:27.492
00:39:25.613                : en:00:39:25.613
00:48:17.269                : en:00:48:17.269
00:55:43.674                : en:00:55:43.674
01:02:39.130                : en:01:02:39.130
01:11:40.213                : en:01:11:40.213
01:20:37.082                : en:01:20:37.082
01:27:56.521                : en:01:27:56.521


Джерело:
Українська доріжка: uafilm.tv, Electroz.


 Трекер:    Зареєстрований   

Завантажити / скачати мультфільм українською



відео для новачків



 Зареєстрований:   2017-12-21 21:18
 Розмір:   8.68 GB 
 Оцінка мультфільму:   6.7/10 (Голосів: 30)
   
Ваш часовий пояс: GMT + 2 Години

Нова тема   Відповісти