Маестро брехні / Wizard Of Lies (2017) 1080p Ukr/Eng | Sub Eng

Нові коментарі

Нова тема   Відповісти
Автор Повідомлення
НеЗупиняйПродакшн 
VIP


З нами з: 28.07.15
Востаннє: 12.11.19
Повідомлень: 981

2017-12-20 21:46  
_________________________________________________________________________________



Маестро брехні / Wizard Of Lies (2017) 1080p Ukr/Eng | Sub Eng

Маестро брехні / Wizard Of Lies (2017) 1080p Ukr/Eng | Sub Eng


Жанр: драма, біографічний
Країна: США




Кінокомпанія / телеканал: HBO
Режисер: Баррі Левінсон
Актори: Роберт Де Ніро, Мішель Пфайфер, Алессандро Нівола, Нейтен Дарроу та інші

Сюжет:
Телефільм американського режисера Баррі Левінсона, знятий за однойменною книжкою журналістки Діани Енрікес про одну з найбільших у світі фінансових пірамід, яку створив Бернард Мейдофф і яка була викрита владі його синами. У головній ролі Роберт Де Ніро. Діана Енрікес зіграла у фільмі саму себе, відтворюючи у фільмі сцену інтерв'ю з Мейдоффом у перший день тюремного ув'язнення. Слоган фільму: «Зрадити можуть лише ті, кому по-справжньому довіряєш»


Тривалість: 02:12:43

Якість: 1080
Відео:
кодек:
розмір кадру: 1920 x 1080
бітрейт: 9095 кб / c

Аудіо # 1:
мова: українське
озвучення: професійне багатоголосе закадрове
кодек: 5.1
бітрейт: 1509 кб/с

Озвучено студією "НеЗупиняйПродакшн"


Аудіо # 2:
мова: англійська (оригінал)
кодек: 5.1
бітрейт: 1509 кб/с

Субтитри:
мова: англійська
тип: програмні
формат: *.srt

Локалізація постера: DanyZemlyanoy
Info
Video
ID : 1
Format : AVC
Format/Info : Advanced Video Codec
Format profile : [email protected]
Format settings : CABAC / 4 Ref Frames
Format settings, CABAC : Yes
Format settings, ReFrames : 4 frames
Codec ID : V_MPEG4/ISO/AVC
Duration : 2 h 12 min
Bit rate : 9 095 kb/s
Width : 1 920 pixels
Height : 1 080 pixels
Display aspect ratio : 16:9
Frame rate mode : Constant
Frame rate : 23.976 (24000/1001) FPS
Color space : YUV
Chroma subsampling : 4:2:0
Bit depth : 8 bits
Scan type : Progressive
Bits/(Pixel*Frame) : 0.183
Stream size : 8.42 GiB (75%)
Writing library : core 152 r2851 ba24899
Encoding settings : cabac=1 / ref=4 / deblock=1:-3:-3 / analyse=0x3:0x113 / me=umh / subme=8 / psy=1 / psy_rd=1.00:0.25 / mixed_ref=1 / me_range=24 / chroma_me=1 / trellis=1 / 8x8dct=1 / cqm=0 / deadzone=21,11 / fast_pskip=1 / chroma_qp_offset=-4 / threads=30 / lookahead_threads=5 / sliced_threads=0 / nr=0 / decimate=1 / interlaced=0 / bluray_compat=0 / constrained_intra=0 / bframes=3 / b_pyramid=2 / b_adapt=1 / b_bias=0 / direct=3 / weightb=1 / open_gop=0 / weightp=2 / keyint=240 / keyint_min=24 / scenecut=40 / intra_refresh=0 / rc_lookahead=50 / rc=2pass / mbtree=1 / bitrate=9095 / ratetol=1.0 / qcomp=0.60 / qpmin=0 / qpmax=69 / qpstep=4 / cplxblur=20.0 / qblur=0.5 / ip_ratio=1.40 / aq=1:0.75
Default : Yes
Forced : No

Audio #1
ID : 2
Format :
Format/Info : Digital Theater Systems
Codec ID : A_DTS
Duration : 2 h 12 min
Bit rate mode : Constant
Bit rate : 1 510 kb/s
Channel(s) : 6 channels
Channel positions : Front: L C R, Side: L R, LFE
Sampling rate : 48.0 kHz
Frame rate : 93.750 FPS (512 SPF)
Bit depth : 24 bits
Compression mode : Lossy
Stream size : 1.40 GiB (12%)
Title : Українська (НеЗупиняйПродакшн)
Language : Ukrainian
Default : Yes
Forced : No

Audio #2
ID : 3
Format :
Format/Info : Digital Theater Systems
Codec ID : A_DTS
Duration : 2 h 12 min
Bit rate mode : Constant
Bit rate : 1 509 kb/s
Channel(s) : 6 channels
Channel positions : Front: L C R, Side: L R, LFE
Sampling rate : 48.0 kHz
Frame rate : 93.750 FPS (512 SPF)
Bit depth : 24 bits
Compression mode : Lossy
Stream size : 1.40 GiB (12%)
Language : English
Default : No
Forced : No

Menu
00:00:00.000 : en:00:00:00.000
00:12:36.255 : en:00:12:36.255
00:22:45.155 : en:00:22:45.155
00:30:14.730 : en:00:30:14.730
00:39:44.090 : en:00:39:44.090
00:48:29.490 : en:00:48:29.490
01:02:36.211 : en:01:02:36.211
01:14:46.607 : en:01:14:46.607
01:24:02.412 : en:01:24:02.412
01:33:22.972 : en:01:33:22.972
01:41:14.735 : en:01:41:14.735
01:49:13.172 : en:01:49:13.172
01:57:35.632 : en:01:57:35.632
02:08:52.141 : en:02:08:52.141
Скріншоти










Авторський реліз (завантажувати можна без реєстрації)
 Трекер:    Зареєстрований   

Завантажити / скачати фільм українською



відео для новачків



 Зареєстрований:   2018-02-06 09:23
 Розмір:   11.23 GB 
 Оцінка фільму:   8.2/10 (Голосів: 26)
   
Інші релізи
Bod_zik99 
VIP


З нами з: 28.12.13
Востаннє: 12.11.19
Повідомлень: 1438

2017-12-20 22:11  
Коли "Mindhunter"?
calуpso 
Новенький


З нами з: 14.06.12
Востаннє: 12.11.19
Повідомлень: 24

2017-12-21 15:22  
Цитата:
Коли "Mindhunter"?

+++

QUARESMA177 
VIP


З нами з: 27.04.09
Востаннє: 12.11.19
Повідомлень: 454

2017-12-21 20:51  
Коли "Містер Мерседес"? Happy

P.S. під "коли" маю на увазі не "викладіть негайно", а "почніть збір на озвучення"

НеЗупиняйПродакшн 
VIP


З нами з: 28.07.15
Востаннє: 12.11.19
Повідомлень: 981

2017-12-24 12:14  
Bod_zik99 написано:
"Mindhunter"?

QUARESMA177 написано:
"Містер Мерседес"


Ближчим часом будуть анонси.

bot 
робот


З нами з: 30.09.07
Востаннє: 26.05.05
Повідомлень: 22455

2018-02-03 14:25  
Тему перенесено з Анонси релізів до форуму Фільми в HD


НеЗупиняйПродакшн

mrandriy1488 
Новенький


З нами з: 15.02.14
Востаннє: 31.10.19
Повідомлень: 6

2018-02-04 20:25  
Надзвичайно захоплюючий фільм який подивився на одному подиху! Акторський склад підібраний дуже добре!Особливо отримав задоволення від операторської роботи Ейгіла Брілда, а також від гри Де Ніро і найбільше вдячний студії "НеЗупиняйПродакшн"! Рекомендую для перегляду!)
Lyolic 
VIP


З нами з: 04.08.09
Востаннє: 12.11.19
Повідомлень: 392

2018-02-05 22:18  
Озвучка гут, але монтаж... Купа фраз пропадає, змішуючись з оригіналом.
НеЗупиняйПродакшн 
VIP


З нами з: 28.07.15
Востаннє: 12.11.19
Повідомлень: 981

2018-02-05 22:43  
Lyolic написано:
Озвучка гут, але монтаж... Купа фраз пропадає, змішуючись з оригіналом.

Завтра оновимо реліз.

Lyolic 
VIP


З нами з: 04.08.09
Востаннє: 12.11.19
Повідомлень: 392

2018-02-05 22:49  
НеЗупиняйПродакшн написано:
Завтра оновимо реліз.

Дякую, але фільм "одноразовий" Happy
Сподіваюсь, в наступних релізах все буде як треба Wink (1)

НеЗупиняйПродакшн 
VIP


З нами з: 28.07.15
Востаннє: 12.11.19
Повідомлень: 981

2018-02-06 09:25  
Роздачу оновлено - в українські доріжці виправлено рівень гучнoсті озвучення. Прохання перезавантажити.
vovikdemon 
Новенький


З нами з: 06.01.15
Востаннє: 10.11.19
Повідомлень: 2

2018-02-08 20:30  
НеЗупиняйПродакшн
Виправте будь ласка на Вашому сайті рік випуску цього фільму.
upd: І тут будь ласка виправте на "Міссурі".

0mage0 
VIP


З нами з: 06.10.15
Востаннє: 12.11.19
Повідомлень: 557

2018-02-09 09:49  
Це зараз мода на фільми, засновані на реальних подіях чи це я поназавантажував їх і думаю, що їх частка останнім часом збільшилась?
Дуже цікаво було дізнатися про чувака, що створив таку масштабну фінансову піраміду, та ще й обіймав стільки посад на біржах. Але вийшло так, що 16 років створення фінансової піраміди не вистачило для 130 хвилин фільму. Як на мене, трошки вийшло все затягнуто. Можна було додати деталей власне піраміди, а не цих сімейних сцен з синами та рештою йолопів.
Переклад рясніє московськими відношеннями та їх похідними - по відношенню до, відносно.
Панове з НеЗупиняйПродакшн, це все московські кальки. Українські відношення це суто математичний термін. А щодо людей або подій, то люди мають стосунки, стосунок до чогось, висловлюються стосовно, або щодо чогось.

Victor_Scythian 
Забанено
Забанено


З нами з: 06.01.17
Востаннє: 22.10.19
Повідомлень: 287

2018-02-13 06:43  
Нудно, прогнозовано не цікаво... 1/10..
Ваш часовий пояс: GMT + 2 Години

Нова тема   Відповісти