Іноземець / The Foreigner (2017) 720p Ukr/Eng | Sub Eng

Нові коментарі

Нова тема   Відповісти
Автор Повідомлення
Anonymous 







2017-12-20 19:45  
Іноземець / The Foreigner (2017) 720p Ukr/Eng | Sub Eng

Іноземець / The Foreigner (2017) 720p Ukr/Eng | Sub Eng
Альтернативні постери:





Жанр: бойовик, трилер, драма, кримінальний, детектив
Країна: США, Велика Британія, Китай



Кінокомпанія: STX Entertainment, Sparkle Roll Media, Wanda Media Co.
Режисер: Мартін Кемпбелл / Martin Campbell
Актори: Джекі Чан / Jackie Chan, Пірс Броснан / Pierce Brosnan, Кеті Льюнґ / Katie Leung, Майкл МакЕлгаттон / Michael McElhatton, Чарлі Мерфі / Charlie Murphy, Орла Брейді / Orla Brady, Девід Пірс / David Pearse, Піппа Беннетт-Ворнер / Pippa Bennett-Warner, Хорхе Леон Мартінес / Jorge Leon Martinez, Лія Вільямс / Lia Williams та інші

Сюжет:
Колишній спецагент, ветеран в'єтнамської війни Цюань давно склав зброю і вів мирне життя. Але після того, як в теракті прямо на очах гине його дочка-підліток, бачачи, що влада не поспішає розшукувати злочинців, Цюань сам починає пошук вбивці. Він піде на все, щоб помститися.
Цікаві факти про фільм:

- фільм засновано на книзі Стефена Лезера "Китаєць" (англ. The Chinaman), вид. 1992.
Обережно, спойлер!

В лютому 2016 року, під час зйомок епізоду, в якому відбувається вибух двоповерхового автобуса на Ламбетському мосту, в поліцію Лондона надійшло два дзвінка про терористичний акт від занепокоєних перехожих.

https://tsn.ua/svit/londonciv-nalyakav-vidovischniy-vibuh-dvopoverhovogo-avtobusu-v-centri-mista-586576.html
Офіційний український трейлер:


Рейтинг MPAA: R - особам до 17 років обов'язкова присутність батьків або дорослого опікуна
Вікова категорія: 16+


Тривалість: 01:53:52
Якість: 720p

Відео:
кодек:
розмір кадру: 1280 х 536
бітрейт: 5500 кб/с

Аудіо # 1:
мова: українська
переклад: професійний дубльований | студія Tretyakoff production
кодек: 2.0
бітрейт: 192 кб/с
семпл для оцінки якості звуку

Аудіо # 2:
мова: англійська
переклад: оригінал
кодек: 5.1
бітрейт: 640 кб/с

Субтитри # 1:
мова: англійська (форсовані, на кілька фраз китайською)
тип: вбудовані (жорсткі)

Субтитри # 2-3:
мова: англійська (повні, SDH)
тип: програмні (м'які)
формат: *.srt

Збережено оригінальні розділи, як на Blu-ray
Info
Код:
Complete name               : The Foreigner (2017) [Ukr,Eng sub.Eng] 720p [Hurtom].
Format                      :
Format version              : Version 4 / Version 2
File size                   : 5.03 GiB
Duration                    : 1 h 53 min
Overall bit rate            : 6 322 kb/s
Movie name                  : Іноземець / The Foreigner (2017) [Ukr,Eng sub.Eng] 720p [Hurtom]
Released date               : 2017
Writing library             : libebml v1.3.5 + v1.4.8
Cover                       : Yes
Comment                     : http://www.imdb.com/title/tt1615160/
Attachments                 : cover.jpg
ARTIST                      : Джекі Чан / Jackie Chan, Пірс Броснан / Pierce Brosnan, Кеті Льюнґ / Katie Leung, Майкл МакЕлгаттон / Michael McElhatton, Чарлі Мерфі / Charlie Murphy, Орла Брейді / Orla Brady, Девід Пірс / David Pearse, Піппа Беннетт-Ворнер / Pippa Bennett-Warner, Хорхе Леон Мартінес / Jorge Leon Martinez, Лія Вільямс / Lia Williams та інші
DIRECTOR                    : Мартін Кемпбелл / Martin Campbell
GENRE                       : бойовик, драма, кримінальний, трилер
SYNOPSIS                    : Колишній спецагент, ветеран в'єтнамської війни Цюань давно склав зброю і вів мирне життя. Але після того, як в теракті прямо на очах гине його дочка-підліток, бачачи, що влада не поспішає розшукувати злочинців, Цюань сам починає пошук вбивці. Він піде на все, щоб помститися...
Url                         : https://toloka.to/t85965

Video
ID                          : 1
Format                      : AVC
Format/Info                 : Advanced Video Codec
Format profile              : [email protected]
Format settings             : CABAC / 12 Ref Frames
Format settings, CABAC      : Yes
Format settings, ReFrames   : 12 frames
Codec ID                    : V_MPEG4/ISO/AVC
Duration                    : 1 h 53 min
Bit rate                    : 5 500 kb/s
Width                       : 1 280 pixels
Height                      : 536 pixels
Display aspect ratio        : 2.40:1
Frame rate mode             : Constant
Frame rate                  : 23.976 (24000/1001) FPS
Color space                 : YUV
Chroma subsampling          : 4:2:0
Bit depth                   : 8 bits
Scan type                   : Progressive
Bits/(Pixel*Frame)          : 0.334
Stream size                 : 4.36 GiB (87%)
Title                       : Іноземець / The Foreigner (2017) 720p
Writing library             : core 148 r2665kMod a01e339
Encoding settings           : cabac=1 / ref=12 / deblock=1:-3:-3 / analyse=0x3:0x133 / me=umh / subme=11 / psy=1 / fade_compensate=0.00 / psy_rd=1.05:0.00 / mixed_ref=1 / me_range=32 / chroma_me=1 / trellis=2 / 8x8dct=1 / cqm=0 / deadzone=21,11 / fast_pskip=0 / chroma_qp_offset=-2 / threads=17 / lookahead_threads=2 / sliced_threads=0 / nr=0 / decimate=0 / interlaced=0 / bluray_compat=0 / constrained_intra=0 / fgo=0 / bframes=8 / b_pyramid=2 / b_adapt=2 / b_bias=0 / direct=3 / weightb=1 / open_gop=0 / weightp=2 / keyint=240 / keyint_min=24 / scenecut=40 / intra_refresh=0 / rc=2pass / mbtree=0 / bitrate=5500 / ratetol=1.0 / qcomp=0.70 / qpmin=0 / qpmax=69 / qpstep=4 / cplxblur=20.0 / qblur=0.5 / ip_ratio=1.20 / pb_ratio=1.20 / aq=3:0.85
Language                    : English
Default                     : Yes
Forced                      : No

Audio #1
ID                          : 2
Format                      : AC-3
Format/Info                 : Audio Coding 3
Codec ID                    : A_AC3
Duration                    : 1 h 53 min
Bit rate mode               : Constant
Bit rate                    : 192 kb/s
Channel(s)                  : 2 channels
Channel positions           : Front: L R
Sampling rate               : 48.0 kHz
Frame rate                  : 31.250 FPS (1536 SPF)
Bit depth                   : 16 bits
Compression mode            : Lossy
Stream size                 : 156 MiB (3%)
Title                       : Dub [Line] 2.0 192 Kbps [Hurtom]
Language                    : Ukrainian
Service kind                : Complete Main
Default                     : Yes
Forced                      : Yes

Audio #2
ID                          : 3
Format                      : AC-3
Format/Info                 : Audio Coding 3
Codec ID                    : A_AC3
Duration                    : 1 h 53 min
Bit rate mode               : Constant
Bit rate                    : 640 kb/s
Channel(s)                  : 6 channels
Channel positions           : Front: L C R, Side: L R, LFE
Sampling rate               : 48.0 kHz
Frame rate                  : 31.250 FPS (1536 SPF)
Bit depth                   : 16 bits
Compression mode            : Lossy
Stream size                 : 521 MiB (10%)
Title                       : Original, 5.1 640 Kbps
Language                    : English
Service kind                : Complete Main
Default                     : No
Forced                      : No

Text #1
ID                          : 4
Format                      : UTF-8
Codec ID                    : S_TEXT/UTF8
Codec ID/Info               : UTF-8 Plain Text
Duration                    : 1 h 44 min
Bit rate                    : 53 b/s
Count of elements           : 1143
Stream size                 : 41.0 KiB (0%)
Title                       : Eng full
Language                    : English
Default                     : No
Forced                      : No

Text #2
ID                          : 5
Format                      : UTF-8
Codec ID                    : S_TEXT/UTF8
Codec ID/Info               : UTF-8 Plain Text
Duration                    : 1 h 45 min
Bit rate                    : 59 b/s
Count of elements           : 1352
Stream size                 : 46.0 KiB (0%)
Title                       : Eng SDH
Language                    : English
Default                     : No
Forced                      : No

Menu
00:00:00.000                : en:00:00:00.000
00:08:19.541                : en:00:08:19.541
00:15:49.574                : en:00:15:49.574
00:21:47.765                : en:00:21:47.765
00:27:04.164                : en:00:27:04.164
00:32:09.511                : en:00:32:09.511
00:35:24.164                : en:00:35:24.164
00:38:30.934                : en:00:38:30.934
00:43:50.169                : en:00:43:50.169
00:47:38.189                : en:00:47:38.189
00:54:10.497                : en:00:54:10.497
01:01:42.324                : en:01:01:42.324
01:08:07.333                : en:01:08:07.333
01:14:14.033                : en:01:14:14.033
01:18:42.927                : en:01:18:42.927
01:23:26.877                : en:01:23:26.877
01:29:18.812                : en:01:29:18.812
01:38:55.012                : en:01:38:55.012
01:43:45.928                : en:01:43:45.928
01:47:09.298                : en:01:47:09.298


Джерело: &
За звук подяка автору реліза, за постери - п. Ham_R.


 Трекер:    Зареєстрований   

Завантажити / скачати фільм українською



відео для новачків



 Зареєстрований:   2017-12-31 02:06
 Розмір:   5.03 GB 
 Оцінка фільму:   8.5/10 (Голосів: 109)
   
Інші релізи
   Іноземець / The Foreigner (2017) Remux 1080p Ukr/Eng | Sub Eng romiv  3 / 0   28.92 GB   2018-03-12 23:20 
   Іноземець / The Foreigner (2017) 1080p Ukr/Eng | Sub Eng Electroz  12 / 0   12.17 GB   2018-01-01 15:45 
   Іноземець / The Foreigner (2017) AVC Ukr/Eng | Sub Eng 11FrYkT  29 / 0   2.18 GB   2017-12-30 22:46 
   Іноземець / The Foreigner (2017) Covenant  20 / 0   1.45 GB   2017-12-30 22:34 
Victor_Scythian 
VIP


З нами з: 06.01.17
Востаннє: 25.05.19
Повідомлень: 265

2017-12-21 18:06  
Найкращий фільм з Джекі Чаном за останні 5 років! 10/10.
waldi-hurtom 
VIP


З нами з: 07.10.12
Востаннє: 24.05.19
Повідомлень: 965

2017-12-21 20:23  
Як сумно - не дочекався українською! Дійсно, найкращий фільм з Джекі Чаном.
SASUKE1744 
Новенький


З нами з: 23.10.17
Востаннє: 25.05.19
Повідомлень: 4

2017-12-21 21:01  
Згоден,чудовий фільм))це краще покоління акторів,які так знайомі з дитинства і досить сумно ,що минає їх час))навіть у свої 63 він змушує собою захоплюватись))просто повага
Kamper 
Свій


З нами з: 21.01.13
Востаннє: 25.05.19
Повідомлень: 58

2017-12-22 11:46  
Приємний бойовичок для вечірнього перегляду. Джекі вмовили зніматися не в комедії.
saya75 
Новенький


З нами з: 07.11.17
Востаннє: 29.01.18
Повідомлень: 6

2017-12-23 02:23  
Гарно вдячний за роздачу та озвучку.
Дійсно,гарний фільм та Джекі.З задоволенням переглянув.

bmwhalyava 
Частий відвідувач


З нами з: 09.07.15
Востаннє: 24.05.19
Повідомлень: 27

2017-12-23 17:11  
Джекі Чан актор з великої букви! Дуже класний фільм.
casper101 
VIP


З нами з: 03.12.09
Востаннє: 25.05.19
Повідомлень: 404

2017-12-27 13:01  
крутий бойовичок з Джекі.
demitsuru 
Попереджень: 1
Попереджень: 1 


З нами з: 13.11.16
Востаннє: 25.05.19
Повідомлень: 282

2017-12-27 20:30  
Рідко пишу відгуки до фільмів. Цей фільм дуже якісний бойовик. Не було відчуття що десь є тупий момент.
Хвилювався до кінця перегляду. Неочікуване логічне завершення.
Переклад фільму теж якісний. Чутно кожне слово.

Too Much 
Свій


З нами з: 18.10.14
Востаннє: 22.09.18
Повідомлень: 57

2017-12-29 17:15  
Супер-Чан! Супер-фільм!
Anonymous 







2017-12-31 02:09  
реліз оновлено до 'а
ftp 
Частий відвідувач


З нами з: 24.05.12
Востаннє: 24.05.19
Повідомлень: 26

2018-01-03 22:12  
+
IAmHusein 
Новенький


З нами з: 01.04.13
Востаннє: 02.05.19
Повідомлень: 9

2018-01-05 14:43  
Найкращий бойовик минулого року.
ДЖЕКІ ЧАН ШАРАШИТЬ ЧУВАКІВ ПЛАЗМОЮ

kinaxem 
VIP


З нами з: 21.12.16
Востаннє: 25.05.19
Повідомлень: 315

2018-01-08 20:30  
Anonymous написано:
реліз оновлено до 'а

а звук буде оновлюватись?

Anonymous 







2018-01-08 20:48  
kinaxem, на мегого заявлено укр.звук, але фільм доступний лише зі SmartTV, тож не знаю, чи комусь вдасться витягнути його.
КапустаНенька 
Новенький


З нами з: 15.01.18
Востаннє: 18.01.18
Повідомлень: 1

2018-01-18 11:06  
Джеккі Чан - Ван Лав
Lil`Antoni 
VIP


З нами з: 25.02.12
Востаннє: 25.05.19
Повідомлень: 718

2018-08-18 22:53  
Сподобався фільм.
радий що знайшов.
Дякую за реліз.
З цбого боку я Чана не бачив. для мене це в новинку ?)

Ваш часовий пояс: GMT + 2 Години

Нова тема   Відповісти