Валландер (Сезони 1-2, 3 (1-5)) / Wallander (Seasons 1-2, 3 (1-5)) (2005-2013) 720p Ukr/Swe

Нові коментарі

Нова тема   Відповісти
Автор Повідомлення
Anonymous 







2017-12-20 18:15  

Сезони 1-3: | 720p

Валландер (Сезони 1-2, 3 (1-5)) / Wallander (Seasons 1-2, 3 (1-5)) (2005-2013) 720p Ukr/Swe

Валландер (Сезони 1-2, 3 (1-5)) / Wallander (Seasons 1-2, 3 (1-5)) (2005-2013) 720p Ukr/Swe

Жанр: кримінальний, драма
Країна: Швеція, Німеччина, Данія, Норвегія, Фінляндія



Кінокомпанія: Yellow Bird, ARD Degeto Film, TV4 Sweden
Режисер: Геннінґ Манкелль (Henning Mankell)
Актори: Крістер Генріксон (Krister Henriksson), Фредрік Ґуннарсон (Fredrik Gunnarsson), Матс Берґмен (Mats Bergman), Юганна Селльстрьом (Johanna Sällström) та інші

Сюжет:
Комісар поліції Курт Валландер - вразливий і впертий мізантроп, який мало їсть та нерегулярно спить, зате багато п'є і слухає оперну музику. Він різкий і використовує нестандартні методи роботи. Він покладається на свої власні інстинкти та досвід і не гребує незаконними способами розкриття злочинів. І навіть його дочка Лінда, яка працює разом з ним, не завжди здатна його зрозуміти.


Тривалість: 1 серія: ~90 хв. (цілком серій: 31)
Перелік серій
Сезон 1
01. До морозів / Innan frosten
02. Сільський дурник / Byfånen
03. Брати / Bröderna
04. Темрява / Mörkret
05. Африканець / Afrikanen
06. Маніпулятор / Mastermind
07. Слабке місце / Den svaga punkten
08. Фотограф / Fotografen
09. Обкладинка / Täckmanteln
10. Жінка / Luftslottet
11. Споріднені душі / Blodsbande
12. Джокер / Jokern
13. Таємниця / Hemligheten
Сезон 2
01. Помста / Hämnden
02. Борг / Skulden
03. Кур'єр / Kuriren
04. Злодій / Tjuven
05. Віоленчелістка / Cellisten
06. Священик / Prästen
07. Витік / Läckan
08. Стрілець / Skytten
09. Янгол смерті / Dödsängeln
10. Привид / Vålnaden
11. Спадок / Arvet
12. Збирач боргів / Indrivaren
13. Свідок / Vittnet
Сезон 3
01. Невгамовний / Den orolige mannen
02. Зникла / Försvunnen
03. Зрада / Sveket
04. Втрата / Saknaden
05. Палій / Mordbrännaren
06. ??? / Sorgfågeln (серія відсутня)
Якість:
Відео:
кодек:
розмір кадру: 1280 х 720, 1280x544 (S02E10, S02E11)
бітрейт: 5200-8900 кб/с

Аудіо # 1:
мова: українська
переклад: багатоголосий закадровий
кодек: 2.0
бітрейт: 192 кб/с

Аудіо # 2:
мова: шведська
переклад: оригінал
кодек: 2.0
бітрейт: 192 кб/с

Джерело озвучення:
Info
General
Unique ID : 206356424974080533330079859616471447845 (0x9B3ECD434068D56682FC9F3331B5F925)
Complete name : E:\Support\Wallander (SE) [, 720p, Ukr, Swe]\Season 1\Wallander.S01E01..720p.
Format :
Format version : Version 4 / Version 2
File size : 3.68 GiB
Duration : 1 h 28 min
Overall bit rate : 5 952 kb/s
Encoded date : UTC 2017-12-16 11:24:53
Writing application : v18.0.0 ('Apricity') 64-bit
Writing library : libebml v1.3.5 + v1.4.8

Video
ID : 1
Format : AVC
Format/Info : Advanced Video Codec
Format profile : [email protected]
Format settings, CABAC : Yes
Format settings, ReFrames : 5 frames
Codec ID : V_MPEG4/ISO/AVC
Duration : 1 h 28 min
Bit rate : 5 565 kb/s
Width : 1 280 pixels
Height : 720 pixels
Display aspect ratio : 16:9
Frame rate mode : Constant
Frame rate : 25.000 FPS
Color space : YUV
Chroma subsampling : 4:2:0
Bit depth : 8 bits
Scan type : Progressive
Bits/(Pixel*Frame) : 0.242
Stream size : 3.44 GiB (94%)
Writing library : core 113 r1884 7313bb5
Encoding settings : cabac=1 / ref=5 / deblock=1:0:0 / analyse=0x3:0x133 / me=umh / subme=7 / psy=1 / psy_rd=1.00:0.00 / mixed_ref=1 / me_range=16 / chroma_me=1 / trellis=1 / 8x8dct=1 / cqm=0 / deadzone=21,11 / fast_pskip=0 / chroma_qp_offset=-2 / threads=6 / sliced_threads=0 / nr=0 / decimate=1 / interlaced=0 / constrained_intra=0 / bframes=3 / b_pyramid=2 / b_adapt=2 / b_bias=0 / direct=3 / weightb=1 / open_gop=0 / weightp=2 / keyint=250 / keyint_min=25 / scenecut=40 / intra_refresh=0 / rc_lookahead=50 / rc=2pass / mbtree=1 / bitrate=5565 / ratetol=1.0 / qcomp=0.60 / qpmin=0 / qpmax=69 / qpstep=4 / cplxblur=20.0 / qblur=0.5 / ip_ratio=1.40 / aq=1:1.00
Language : Swedish
Default : Yes
Forced : No

Audio #1
ID : 2
Format : AC-3
Format/Info : Audio Coding 3
Format settings, Endianness : Big
Codec ID : A_AC3
Duration : 1 h 28 min
Bit rate mode : Constant
Bit rate : 192 kb/s
Channel(s) : 2 channels
Channel positions : Front: L R
Sampling rate : 48.0 kHz
Frame rate : 31.250 FPS (1536 spf)
Bit depth : 16 bits
Compression mode : Lossy
Stream size : 121 MiB (3%)
Title : Індиго TV
Language : Ukrainian
Service kind : Complete Main
Default : Yes
Forced : No

Audio #2
ID : 3
Format : AC-3
Format/Info : Audio Coding 3
Format settings, Endianness : Big
Codec ID : A_AC3
Duration : 1 h 28 min
Bit rate mode : Constant
Bit rate : 192 kb/s
Channel(s) : 2 channels
Channel positions : Front: L R
Sampling rate : 48.0 kHz
Frame rate : 31.250 FPS (1536 spf)
Bit depth : 16 bits
Compression mode : Lossy
Stream size : 121 MiB (3%)
Language : Swedish
Service kind : Complete Main
Default : No
Forced : No
Скріншоти

За українську доріжку та надане відео дякую п. krigg070

Джерело:
Особиста оцінка: 8 - мені сподобалося


Золотий реліз (завантажене не впливає на рейтинг)
 Трекер:    Зареєстрований   

Завантажити / скачати серіал українською



відео для новачків



 Зареєстрований:   2018-01-13 14:36
 Розмір:   118.88 GB 
 Оцінка серіалу:   5.4/10 (Голосів: 23)
   
Anonymous 







2017-12-20 18:18  
О, тільки-но зібрався просити за золото Rolleyes (1)
krigg070 
Відео Гуртом - фільмокрай
Відео Гуртом - фільмокрай


З нами з: 29.10.14
Востаннє: 03.12.20
Повідомлень: 1819

2017-12-20 20:31  
А шведські субтитри нащо повиймав?
Anonymous 







2017-12-20 21:13  
krigg070 написано:
А шведські субтитри нащо повиймав?

Не бачу сенсу у пререндерених шведських субтитрах. У мене жоден плеєр їх навіть не зміг відтворити.

krigg070 
Відео Гуртом - фільмокрай
Відео Гуртом - фільмокрай


З нами з: 29.10.14
Востаннє: 03.12.20
Повідомлень: 1819

2017-12-20 21:20  
Anonymous написано:
жоден плеєр їх навіть не зміг відтворити

Та будь-який нормальний плеєр спокійно відтворює. VLC наприклад.

А якщо про залізячні плеєри, то таке цілком можливо. Проте в контейнері саби не покусалися б.

Anonymous 







2017-12-20 22:51  
krigg070 написано:
Та будь-який нормальний плеєр спокійно відтворює. VLC наприклад.

Хм, дійсно відтворює, при чому не тільки VLC. Певно, десь не там дивився Rolleyes (2)

Подумаю, може потім поверну їх, кілька десятків мегабайт тут ролі не грають.

Anonymous 







2018-01-04 22:23  
Додав другий сезон та замінив звук у дев'ятій серії першого сезону.
Третій сезон затримається.

Anonymous 







2018-01-13 14:41  
Додав серії 1-5 третього сезону. Заключної 6-ї серії поки нема, можливо, буде десь за місяць.
Ваш часовий пояс: GMT + 2 Години

Нова тема   Відповісти