Воно / It (2017) Remux 1080p Ukr/Eng | Sub Eng

Нові коментарі

Нова тема   Відповісти
Автор Повідомлення
Anonymous 







2017-12-20 02:23  
Воно / It (2017) Remux Ukr/Eng | Sub Eng

Воно / It (2017) Remux 1080p Ukr/Eng | Sub Eng
Альтернативні постери







Жанр: жахи, трилер, драма
Країна: США



Кінокомпанія: New Line Cinema, KatzSmith Productions, Lin Pictures, RatPac-Dune Entertainment, Vertigo Entertainment
Режисер: Андрес Мускетті / Andy Muschietti
Актори: Джейден Ліберер / Jaeden Lieberher, Джеремі Рей Тейлор / Jeremy Ray Taylor, Софія Лілліс / Sophia Lillis, Фінн Вольфхард / Finn Wolfhard, Чоузен Джейкобс / Chosen Jacobs, Джек Ділан Грейзер / Jack Dylan Grazer, Вайатт Олефф / Wyatt Oleff, Білл Скарсгард / Bill Skarsgård, Ніколас Гемілтон / Nicholas Hamilton, Джейк Сім / Jake Sim та інші

Сюжет:
У маленькому містечку Деррі у штаті Мен семеро дітей, відомих як "Клуб невдах", зіштовхуються з чудовиськом, яке здатне перетворюватись на клоуна на ім'я Пеннівайз…
Офіційні українські трейлери, промо-ролики, відео про зйомки:

Промо-ролик:


Перший трейлер:


Другий трейлер:


Клуб невдах. Відео про зйомки:


Зустріч з власними страхами. Відео про зйомки:
Рейтинг MPAA: R - особам до 17 років обов'язкова присутність батьків або дорослого опікуна
Вікова категорія: 16+
Тривалість: 02:14:42
Якість: Remux
Відео:
кодек:
розмір кадру: 1920 х 1080
бітрейт: 23,8 Мб/с

Аудіо # 1:
мова: українська
переклад: професійний дубльований | студія Postmodern
кодек: 2.0 [стерео]
бітрейт: 192 кб/с
Інформація про дубляж
Переклад: Олег Колесніков
Режисер дубляжу: Катерина Брайковська
Звукорежисер: Антон Семикопенко
Звукорежисер перезапису: Микита Будаш
Ролі дублювали: Володимир Машук, Арсен Шавлюк, Віктор Григор'єв, Антоніна Хижняк, Генріх Малащинський, Олег Олександров, Андрій Мостренко, Максим Чумак, Дмитро Зленко, Павло Лі, Микита Тишкевич, Михайло Кришталь та інші

Фільм дубльовано компанією Postmodern
Аудіо # 2:
мова: англійська
переклад: оригінал
кодек: Dolby TrueHD 7.1
бітрейт: 3783 кб/с

Субтитри # 1:
мова: українська (форсовані)
тип: пререндерні
формат: *.pgs

Субтитри # 2:
мова: англійська (SDH)
тип: пререндерні
формат: *.pgs

Збережено оригінальні розділи, як на Blu-ray
Info:
Код:
Complete name               : It (2017) [Ukr,Eng sub.Eng] Remux 1080p [Hurtom].
Format                      :
Format version              : Version 4 / Version 2
File size                   : 26.2 GiB
Duration                    : 2 h 14 min
Overall bit rate mode       : Variable
Overall bit rate            : 27.8 Mb/s
Movie name                  : Воно / It (2017) [Ukr,Eng sub.Eng] Remux 1080p [Hurtom]
Released date               : 2017
Writing library             : libebml v1.3.5 + v1.4.8
Cover                       : Yes
Comment                     : http://www.imdb.com/title/tt1396484/
Attachments                 : cover.jpg
ARTIST                      : Джейден Ліберер / Jaeden Lieberher, Джеремі Рей Тейлор / Jeremy Ray Taylor, Софія Лілліс / Sophia Lillis, Фінн Вольфхард / Finn Wolfhard, Чоузен Джейкобс / Chosen Jacobs, Джек Ділан Грейзер / Jack Dylan Grazer, Вайатт Олефф / Wyatt Oleff, Білл Скарсгард / Bill Skarsgård, Ніколас Гемілтон / Nicholas Hamilton, Джейк Сім / Jake Sim та інші
DIRECTOR                    : Андрес Мускетті / Andy Muschietti
GENRE                       : жахи, трилер, драма
SYNOPSIS                    : У маленькому містечку Деррі у штаті Мен семеро дітей, відомих як "Клуб невдах", зіштовхуються з чудовиськом, яке здатне перетворюватись на клоуна на ім'я Пеннівайз…
Url                         : https://toloka.to/t85946

Video
ID                          : 1
Format                      : AVC
Format/Info                 : Advanced Video Codec
Format profile              : [email protected]
Format settings             : CABAC / 4 Ref Frames
Format settings, CABAC      : Yes
Format settings, ReFrames   : 4 frames
Codec ID                    : V_MPEG4/ISO/AVC
Duration                    : 2 h 14 min
Bit rate mode               : Variable
Bit rate                    : 23.8 Mb/s
Maximum bit rate            : 30.0 Mb/s
Width                       : 1 920 pixels
Height                      : 1 080 pixels
Display aspect ratio        : 16:9
Frame rate mode             : Constant
Frame rate                  : 23.976 (24000/1001) FPS
Color space                 : YUV
Chroma subsampling          : 4:2:0
Bit depth                   : 8 bits
Scan type                   : Progressive
Bits/(Pixel*Frame)          : 0.478
Stream size                 : 22.4 GiB (85%)
Title                       : Воно / It (2017) Remux 1080p [BlueBird]
Language                    : English
Default                     : Yes
Forced                      : No

Audio #1
ID                          : 2
Format                      : AC-3
Format/Info                 : Audio Coding 3
Codec ID                    : A_AC3
Duration                    : 2 h 14 min
Bit rate mode               : Constant
Bit rate                    : 192 kb/s
Channel(s)                  : 2 channels
Channel positions           : Front: L R
Sampling rate               : 48.0 kHz
Frame rate                  : 31.250 FPS (1536 SPF)
Bit depth                   : 16 bits
Compression mode            : Lossy
Stream size                 : 185 MiB (1%)
Title                       : Dub [Postmodern, iTunes] 2.0 [stereo] 192 Kbps
Language                    : Ukrainian
Service kind                : Complete Main
Default                     : Yes
Forced                      : Yes

Audio #2
ID                          : 3
Format                      : TrueHD
Format profile              : TrueHD+Atmos / TrueHD
Codec ID                    : A_TRUEHD
Duration                    : 2 h 14 min
Bit rate mode               : Variable
Bit rate                    : 3 783 kb/s
Maximum bit rate            : 7 701 kb/s
Channel(s)                  : Object Based / 8 channels
Channel positions           : Object Based / Front: L C R, Side: L R, Back: L R, LFE
Sampling rate               :  / 48.0 kHz
Frame rate                  : 1 200.000 FPS (40 SPF)
Compression mode            : Lossless
Stream size                 : 3.56 GiB (14%)
Title                       : Original, Dolby Atmos TrueHD 7.1 4231 Kbps
Language                    : English
Default                     : No
Forced                      : No

Text #1
ID                          : 4
Format                      : PGS
Muxing mode                 : zlib
Codec ID                    : S_HDMV/PGS
Codec ID/Info               : Picture based subtitle format used on BDs/HD-DVDs
Duration                    : 2 h 12 min
Bit rate                    : 1 779 b/s
Count of elements           : 138
Stream size                 : 1.69 MiB (0%)
Title                       : Ukr Forced [iTunes]
Language                    : Ukrainian
Default                     : Yes
Forced                      : Yes

Text #2
ID                          : 5
Format                      : PGS
Muxing mode                 : zlib
Codec ID                    : S_HDMV/PGS
Codec ID/Info               : Picture based subtitle format used on BDs/HD-DVDs
Duration                    : 2 h 14 min
Bit rate                    : 31.9 kb/s
Count of elements           : 3677
Stream size                 : 30.7 MiB (0%)
Title                       : Eng SDH
Language                    : English
Default                     : No
Forced                      : No

Menu
00:00:00.000                : en:Chapter 1
00:09:23.645                : en:Chapter 2
00:18:31.859                : en:Chapter 3
00:28:26.162                : en:Chapter 4
00:38:36.981                : en:Chapter 5
00:48:19.438                : en:Chapter 6
00:59:30.775                : en:Chapter 7
01:08:52.795                : en:Chapter 8
01:16:58.822                : en:Chapter 9
01:26:52.957                : en:Chapter 10
01:38:15.305                : en:Chapter 11
01:48:40.971                : en:Chapter 12
02:04:07.898                : en:Chapter 13
02:09:05.654                : en:Chapter 14


Джерело: &
Подяка за постер Ham_R.


Золотий реліз (завантажене не впливає на рейтинг)
 Трекер:    Зареєстрований   

Завантажити / скачати фільм українською



відео для новачків



 Зареєстрований:   2017-12-20 11:10
 Розмір:   26.17 GB 
 Оцінка фільму:   7.6/10 (Голосів: 54)
   
Інші релізи
   Воно / It (2017) 1080p H.265 Ukr/Eng | Sub Eng -Star-Lord-  6 / 0   6.23 GB   2018-08-21 13:55 
   Воно / It (2017) 720p Ukr/Eng | Sub Eng 11FrYkT  38 / 3   5.74 GB   2017-12-20 19:46 
   Воно / It (2017) AVC Ukr/Eng | Sub Eng 11FrYkT  43 / 0   2.24 GB   2017-12-20 19:24 
   Воно / It (2017) 1080p Ukr/Eng | Sub Eng Electroz  31 / 0   10.01 GB   2017-12-20 12:56 
   Воно / It (2017) igor911  56 / 0   1.45 GB   2017-12-20 12:13 
F.R.F.D! 
Новенький


З нами з: 13.03.12
Востаннє: 20.09.18
Повідомлень: 23

2017-12-20 13:41  
ееее дякую =*
Rabotnik UA 
Новенький


З нами з: 31.08.15
Востаннє: 08.09.18
Повідомлень: 20

2017-12-20 21:11  
алілуя. дочекались. неймовірно вдячний за появу цього релізу.
Mr.Destiny 
Свій


З нами з: 19.03.14
Востаннє: 18.09.18
Повідомлень: 56

2017-12-20 22:44  
очікував більшого, посередні жахи
Ragged 
Новенький


З нами з: 25.05.13
Востаннє: 15.09.18
Повідомлень: 5

2017-12-22 01:32  
Я шкодую, що витратив час на цей фільм.
вальдемар 
Свій


З нами з: 06.01.11
Востаннє: 17.09.18
Повідомлень: 143

2017-12-23 22:12  
Теж очікував більшого. Таки важко екранізувати С.Кінга. Але кіно дивитися можна.
V.i.R.u.S 
Свій


З нами з: 19.11.10
Востаннє: 21.09.18
Повідомлень: 74

2017-12-24 18:07  
Якийсь дитячий фільм жахів, додивився тільки заради Кінга!
Rabotnik UA 
Новенький


З нами з: 31.08.15
Востаннє: 08.09.18
Повідомлень: 20

2018-01-01 20:39  
чекав на реліз досить довго. переглянув і розчарувався - дитяча казка. як можна було так переср@ти таке творіння Кінга??! екранізація цього роману 1990 року від Томмі Лі Воллеса була набагато вдалішою. в сучасній версії можу виділити лише гру дітей-акторів. особиста оцінка - 5 з 10 і виключно за акторську гру.
Uberwinder 
VIP


З нами з: 18.11.16
Востаннє: 21.09.18
Повідомлень: 268

2018-02-01 23:49  
Зважаючи на рейтинг фільму, очікував від перегляду більшого...
11994455 
Поважний учасник


З нами з: 07.04.14
Востаннє: 20.09.18
Повідомлень: 225

2018-08-08 22:24  
Rabotnik UA
Блін згадав одну сцену в 90х коли він до всіх вилазив з книжки і казав "Я зараз вас тут всіх повбиваю" - тільки то був не цей переклад...
Питання на рахунок Беверлі - Якщо її і матір аутиста послала і Бауерз мабуть було за-що...

Ваш часовий пояс: GMT + 2 Години

Нова тема   Відповісти