Джунглі / Jungle (2017) Remux 1080p Ukr/Eng | Sub Eng — HD українською

Джунглі / Jungle (2017) Remux 1080p Ukr/Eng | Sub Eng

Нові коментарі

Нова тема   Відповісти
Автор Повідомлення
IronBee 
Поважний учасник


З нами з: 08.02.10
Востаннє: 14.08.18
Повідомлень: 189

2017-12-17 18:19  
Джунглі / Jungle (2017) Remux 1080p Ukr/Eng | Sub Eng

Джунглі / Jungle (2017) Remux 1080p Ukr/Eng | Sub Eng


Жанр: драма, пригоди, трилер
Країна: Австралія, Колумбія



Кінокомпанія: Babber Films, Cutting Edge Group, Screen Australia
Режисер: Грег МакЛін
Актори: Деніел Редкліфф, Томас Кречман, Алекс Расселл, Джоел Джексон, Лілі Салліван, Ясмін Кассім, Яцек Коман, Луіс Хосе Лопез, Енджи Міллікен, Періс Молетті та інші

Сюжет:
Йоссі Гінсберг вирішив розпочати своє доросле життя із подорожі світом. Найцікавіше йому було серед Амазонських джунглів. Знайшлися і нові друзі – такі ж як і він шукачі пригод та нових відчуттів. Спілкування з загадковим Карлом змінює плани юнаків – усі разом вони відправляються углиб джунглів. Та вочевидь плани Карла відрізнялися від планів хлопців, він покидає їх самих посеред дикої природи. Йоссі доведеться подолати власні страхи та докласти максимум зусиль аби вижити.


Тривалість: 01:55:22
Якість: Remux
Відео:
кодек:
розмір кадру: 1920 х 1080
бітрейт: 30,1 Mб/с

Аудіо # 1:
мова: українська
переклад: професійний дубльований (AAA-Sound)
кодек: 2.0
бітрейт: 192 кб/с

Аудіо # 2:
мова: англійська
переклад: оригінал
кодек: -HD MA 5.1
бітрейт: 2048 кб/с

Субтитри # 1-2: (Forced, Full)
мова: англійська
тип: програмні (м'які)
формат: *.srt
Info
General
Unique ID : 203670654093205521852566661892864215851 (0x99398A88E0F58E8FB843C84E215C0B2B)
Complete name : D:\Films\Джунглі Jungle (2017) Remux 1080p UkrEng Sub Eng[Hurtom].
Format :
Format version : Version 4 / Version 2
File size : 26.0 GiB
Duration : 1 h 55 min
Overall bit rate mode : Variable
Overall bit rate : 32.3 Mb/s
Movie name : MR Sergei for NoNaMe Club
Encoded date : UTC 2017-12-17 11:39:43
Writing application : v18.0.0 ('Apricity') 64-bit
Writing library : libebml v1.3.5 + v1.4.8
Attachments : Jungle.jpg

Video
ID : 1
Format : AVC
Format/Info : Advanced Video Codec
Format profile : [email protected]
Format settings : CABAC / 3 Ref Frames
Format settings, CABAC : Yes
Format settings, ReFrames : 3 frames
Codec ID : V_MPEG4/ISO/AVC
Duration : 1 h 55 min
Bit rate mode : Variable
Bit rate : 30.1 Mb/s
Maximum bit rate : 37.0 Mb/s
Width : 1 920 pixels
Height : 1 080 pixels
Display aspect ratio : 16:9
Frame rate mode : Constant
Frame rate : 23.976 (24000/1001) FPS
Color space : YUV
Chroma subsampling : 4:2:0
Bit depth : 8 bits
Scan type : Progressive
Bits/(Pixel*Frame) : 0.605
Stream size : 24.2 GiB (93%)
Language : English
Default : Yes
Forced : No

Audio #1
ID : 2
Format : AC-3
Format/Info : Audio Coding 3
Codec ID : A_AC3
Duration : 1 h 55 min
Bit rate mode : Constant
Bit rate : 192 kb/s
Channel(s) : 2 channels
Channel positions : Front: L R
Sampling rate : 48.0 kHz
Frame rate : 31.250 FPS (1536 SPF)
Bit depth : 16 bits
Compression mode : Lossy
Stream size : 158 MiB (1%)
Language : Ukrainian
Service kind : Complete Main
Default : Yes
Forced : No

Audio #2
ID : 3
Format :
Format/Info : Digital Theater Systems
Format profile : MA / Core
Codec ID : A_DTS
Duration : 1 h 55 min
Bit rate mode : Variable / Constant
Bit rate : 2 048 kb/s / 1 509 kb/s
Channel(s) : 6 channels
Channel positions : Front: L C R, Side: L R, LFE
Sampling rate : 48.0 kHz
Frame rate : 93.750 FPS (512 SPF)
Bit depth : 16 bits
Compression mode : Lossless / Lossy
Stream size : 1.63 GiB (6%)
Language : English
Default : No
Forced : No

Text #1
ID : 4
Format : UTF-8
Codec ID : S_TEXT/UTF8
Codec ID/Info : UTF-8 Plain Text
Duration : 17 min 24 s
Bit rate : 4 b/s
Count of elements : 21
Stream size : 569 Bytes (0%)
Title : Forced
Language : English
Default : Yes
Forced : No

Text #2
ID : 5
Format : UTF-8
Codec ID : S_TEXT/UTF8
Codec ID/Info : UTF-8 Plain Text
Duration : 1 h 46 min
Bit rate : 34 b/s
Count of elements : 838
Stream size : 26.8 KiB (0%)
Title : Full
Language : English
Default : No
Forced : No

Menu
00:00:00.000 : en:Chapter 01
00:09:58.472 : en:Chapter 02
00:19:46.351 : en:Chapter 03
00:29:15.503 : en:Chapter 04
00:38:54.915 : en:Chapter 05
00:49:26.797 : en:Chapter 06
00:58:30.590 : en:Chapter 07
01:07:50.149 : en:Chapter 08
01:16:25.706 : en:Chapter 09
01:24:54.714 : en:Chapter 10
01:32:55.194 : en:Chapter 11
01:44:37.938 : en:Chapter 12
Скріншоти




Подяка сайту uafilm.tv за придбану доріжку, за синхронізацію пану Electroz

Джерело: &
Особиста оцінка: 0 - не дивився


Золотий реліз (завантажене не впливає на рейтинг)
 Трекер:    Зареєстрований   

Завантажити / скачати фільм українською



відео для новачків



 Зареєстрований:   2017-12-17 18:19
 Розмір:   26.01 GB 
 Оцінка фільму:   9/10 (Голосів: 23)
   
Інші релізи
   Джунглі / Jungle (2017) 1080p-mini H.265 Ukr/Eng | Sub Eng igor302  3 / 0   5.64 GB   2018-03-26 17:26 
   Джуманджі: Поклик джунглів / Jumanji: Welcome to the Jungle (2017) UHD Remux 4K 2160p HDR H.265 Ukr/Eng | Sub Ukr/Eng Devil_my_cry  3 / 0   43.22 GB   2018-03-19 14:53 
   Джуманджі: Поклик джунглів / Jumanji: Welcome to the Jungle (2017) Remux 1080p Ukr/Eng | Sub Ukr/Eng staf777  4 / 0   22.75 GB   2018-03-13 14:45 
   Джуманджі: Поклик джунглів / Jumanji: Welcome to the Jungle (2017) FAELIT  45 / 2   1.49 GB   2018-03-08 13:12 
   Джуманджі: Поклик джунглів / Jumanji: Welcome to the Jungle (2017) AVC Ukr/Eng | Sub Ukr/Eng 11FrYkT  28 / 0   2.5 GB   2018-03-08 11:24 
   Джуманджі: Поклик джунглів / Jumanji: Welcome to the Jungle (2017) 720p Ukr/Eng | Sub Ukr/Eng 11FrYkT  27 / 3   5.41 GB   2018-03-08 11:23 
   Джуманджі: Поклик джунглів / Jumanji: Welcome to the Jungle (2017) 1080p Ukr/Eng | Sub Ukr/Eng igor911  20 / 0   11.28 GB   2018-03-08 05:10 
   Джуманджі: Поклик джунглів / Jumanji: Welcome to the Jungle (2017) Ukr/Eng | Sub Ukr/Eng antik_2008  8 / 2   2.34 GB   2018-03-07 20:52 
   Вартові джунглів / Les As de la Jungle (2017) 1080p Ukr/Fre | Sub Fre igor911  3 / 0   4.86 GB   2018-01-18 21:35 
   Вартові джунглів / Les as de la jungle (2017) Electroz  3 / 0   1.42 GB   2018-01-18 20:56 
   Вартові джунглів / Les As de la Jungle (2017) Remux 1080p Ukr/Fre | Sub Fre igor911  1 / 0   23.6 GB   2018-01-18 20:56 
   Вартові джунглів / Les As de la Jungle (2017) 720p Ukr/Fre 11FrYkT  3 / 0   2.92 GB   2018-01-16 19:16 
   Вартові джунглів / Les As de la Jungle (2017) AVC 11FrYkT  4 / 0   1.45 GB   2018-01-16 19:06 
   Джунглі / Jungle (2017) 720p Ukr/Eng | Sub Eng 11FrYkT  7 / 0   4.54 GB   2017-12-06 21:32 
   Джунглі / Jungle (2017) AVC Ukr/Eng | Sub Eng 11FrYkT  20 / 0   2.25 GB   2017-12-06 21:00 
   Джунглі / Jungle (2017) 1080p Ukr/Eng | Sub Eng Electroz  15 / 0   12.23 GB   2017-12-06 20:03 
   Джунглі / Jungle (2017) Electroz  16 / 0   1.25 GB   2017-12-06 20:02 
ВАВУНЯ 
Поважний учасник


З нами з: 30.06.15
Востаннє: 11.08.18
Повідомлень: 215

2017-12-19 14:21  
коли чекати на кращий звук?
дякую.

Andy_H 
Новенький


З нами з: 20.03.12
Востаннє: 13.08.18
Повідомлень: 6

2018-01-02 21:02  
Круте кіно.
Дуже реалістично і правдоподібно

Uberwinder 
VIP


З нами з: 18.11.16
Востаннє: 14.08.18
Повідомлень: 266

2018-02-07 07:25  
Дякую за реліз! Цікавий фільм!
Ваш часовий пояс: GMT + 2 Години

Нова тема   Відповісти