Що живе всередині (Сезон 1) / What Lives Inside (Season 1) (2015) 1080p Ukr/Eng

Нові коментарі

Нова тема   Відповісти
Автор Повідомлення
Anonymous 







2017-12-16 19:58  
Що живе всередині (Сезон 1) / What Lives Inside (Season 1) (2015) 1080p Ukr/Eng

Що живе всередині (Сезон 1) / What Lives Inside (Season 1) (2015) 1080p Ukr/Eng


Жанр: пригодницький, фентезі
Країна: США



Кінокомпанія: RSA Films, Laundry Design
Режисер: Роберт Стромберґ (Robert Stromberg)
Актори: Колін Генкс (Colin Hanks), Барак Гардлі (Barak Hardley), Кетрін О'Хара (Catherine O'Hara) та інші

Сюжет:
Відомий лялькар Бенжамін помер від серцевого нападу. Протягом багатьох років чоловік займався виготовленням ляльок для популярного серіалу. Тканина, фарби і папір за допомогою ножиць і пензлів перетворювалися на справжні шедеври. Він вкладав душу в створення кожного персонажа, відчувалося, що кожне творіння створювалося з любов'ю до своєї справи. Після смерті Бенжаміна подальша доля серіалу, для якого він працював, була невідома...
Тейлор, вже дорослий син Бенжаміна, вкрай складно переживає втрату батька. Після похорон він відправляється в майстерню, щоб посумувати і пригадати свого талановитого батька. Тут Тейлор виявляє незакінченого персонажа. Однак значно більший інтерес викликає дещо інше: через двері в самому кутку сараю починають доноситися дивні звуки...


Тривалість: 1 серія: 9-13 хв. (цілком серій: 4)
Перелік серій
Episode #1.1
Episode #1.2
Episode #1.3
Episode #1.4
Якість:
Відео:
кодек:
розмір кадру: 1920 х 1080
бітрейт: ~2000 кб/с

Аудіо # 1:
мова: українська
переклад: багатоголосий закадровий
кодек: 2.0
бітрейт: 384 кб/с

Аудіо # 2:
мова: англійська
переклад: оригінал
кодек: 2.0
бітрейт: 384 кб/с

Джерело озвучення:
Info
General
Unique ID : 238571390598419875891850497421638521086 (0xB37B2DB25B5C94A2A379C3BD941250FE)
Complete name : E:\Support\What Lives Inside (Season 1) [, 1080p, Ukr, Eng]\What.Lives.Inside.s01e01..1080p.
Format :
Format version : Version 4 / Version 2
File size : 236 MiB
Duration : 12 min 30 s
Overall bit rate : 2 642 kb/s
Encoded date : UTC 2017-12-16 13:14:28
Writing application : v18.0.0 ('Apricity') 64-bit
Writing library : libebml v1.3.5 + v1.4.8

Video
ID : 1
Format : AVC
Format/Info : Advanced Video Codec
Format profile : [email protected]
Format settings, CABAC : Yes
Format settings, ReFrames : 3 frames
Codec ID : V_MPEG4/ISO/AVC
Duration : 12 min 30 s
Bit rate : 1 872 kb/s
Width : 1 920 pixels
Height : 1 080 pixels
Display aspect ratio : 16:9
Frame rate mode : Constant
Frame rate : 23.976 (24000/1001) FPS
Color space : YUV
Chroma subsampling : 4:2:0
Bit depth : 8 bits
Scan type : Progressive
Bits/(Pixel*Frame) : 0.038
Stream size : 168 MiB (71%)
Default : Yes
Forced : No

Audio #1
ID : 2
Format : AC-3
Format/Info : Audio Coding 3
Format settings, Endianness : Big
Codec ID : A_AC3
Duration : 12 min 30 s
Bit rate mode : Constant
Bit rate : 384 kb/s
Channel(s) : 2 channels
Channel positions : Front: L R
Sampling rate : 48.0 kHz
Frame rate : 31.250 FPS (1536 spf)
Bit depth : 16 bits
Compression mode : Lossy
Stream size : 34.4 MiB (15%)
Title : BaibakoTV
Language : Ukrainian
Service kind : Complete Main
Default : Yes
Forced : No

Audio #2
ID : 3
Format : AC-3
Format/Info : Audio Coding 3
Format settings, Endianness : Big
Codec ID : A_AC3
Duration : 12 min 30 s
Bit rate mode : Constant
Bit rate : 384 kb/s
Channel(s) : 2 channels
Channel positions : Front: L R
Sampling rate : 48.0 kHz
Frame rate : 31.250 FPS (1536 spf)
Bit depth : 16 bits
Compression mode : Lossy
Stream size : 34.4 MiB (15%)
Language : English
Service kind : Complete Main
Default : No
Forced : No
Скріншоти
Джерело:
Особиста оцінка: 0 - не дивився


Авторський реліз (завантажувати можна без реєстрації)
 Трекер:    Зареєстрований   

Завантажити / скачати серіал українською



відео для новачків



 Зареєстрований:   2017-12-16 19:58
 Розмір:   925 MB 
 Оцінка серіалу:   4.3/10 (Голосів: 16)
   
demetrius52 
VIP


З нами з: 02.04.17
Востаннє: 03.05.20
Повідомлень: 264

2017-12-16 21:23  
озвученого трейлеру нема?
drakon87 
Відео Гуртом - фільмокрай
Відео Гуртом - фільмокрай


З нами з: 03.08.08
Востаннє: 02.12.20
Повідомлень: 1208

2017-12-16 21:30  
Раптом згодиться локалізований постер:

Anonymous 







2017-12-16 21:33  
drakon87 написано:
Раптом згодиться локалізований постер:

Згодиться, дякую.

Ваш часовий пояс: GMT + 2 Години

Нова тема   Відповісти