Жах Амітівілля: Пробудження / Amityville: The Awakening (2017) Remux 1080p Ukr/Eng | Sub Eng

Нові коментарі

Нова тема   Відповісти
Автор Повідомлення
Anonymous 







2017-12-11 21:32  
Жах Амітівілля: Пробудження / Amityville: The Awakening (2017) Remux Ukr/Eng | Sub Eng

Жах Амітівілля: Пробудження / Amityville: The Awakening (2017) Remux 1080p Ukr/Eng | Sub Eng

Жанр: трилер, жахи
Країна: США



Кінокомпанія: Miramax Films, Dimension Films, Blumhouse Productions
Режисер: Франк Хальфун / Franck Khalfoun
Актори: Белла Торн / Bella Thorne, Камерон Монаген / Cameron Monaghan, Дженніфер Джейсон Лі / Jennifer Jason Leigh, Дженніфер Моррісон / Jennifer Morrison, МакКенна Ґрейс / Mckenna Grace, Томас Манн / Thomas Mann, Кертвуд Сміт / Kurtwood Smith, Тейлор Спрейтлер / Taylor Spreitler, Хантер Голігоскі / Hunter Goligoski, Ден Мартіно / Dan Martino та інші

Сюжет:
У той самий будинок в місті Амітвіллі переїжджає мати-одиначка Джоан і троє її дітей. Молодша Джульєтта ще зовсім маленька і всьому рада, а ось Белла не в захваті від переїзду і зміни школи. Брат-близнюк Белли Джеймс давно знаходиться в комі. За запевненням лікарів, вийти з цього стану і повернутися до нормального життя він ніколи не зможе. З переїздом до нової оселі стан хлопця змінюється.
Офіційний український трейлер:


Рейтинг MPAA: PG-13 - дітям до 13 років перегляд не бажаний
Вікова категорія: 16+
Тривалість: 01:27:04
Якість: Remux [US Transfer]
Відео:
кодек:
розмір кадру: 1920х1080
бітрейт: 13,6 Мб/с

Аудіо # 1:
мова: українська
переклад: професійний дубльований | студія Tretyakoff production
кодек: 2.0 стерео
бітрейт: 192 кб/с

Аудіо # 2:
мова: англійська
переклад: оригінал
кодек: -HD MA 5.1
бітрейт: 3172 кб/с

Субтитри # 1-2:
мова: англійська (повні, SDH)
тип: програмні (м'які)
формат: *.srt

Збережено оригінальні розділи, як на Blu-ray
Info
Код:
Complete name               : Amityville. The Awakening (2017) [Ukr,Eng sub.Eng] Remux 1080p [Hurtom].
Format                      :
Format version              : Version 4 / Version 2
File size                   : 10.3 GiB
Duration                    : 1 h 27 min
Overall bit rate mode       : Variable
Overall bit rate            : 16.9 Mb/s
Movie name                  : Жах Амітівілля: Пробудження / Amityville: The Awakening (2017) [Ukr,Eng sub.Eng] Remux 1080p [Hurtom]
Released date               : 2017
Writing library             : libebml v1.3.5 + v1.4.8
Cover                       : Yes
Comment                     : http://www.imdb.com/title/tt1935897/
Attachments                 : cover.jpg
ARTIST                      : Белла Торн / Bella Thorne, Камерон Монаген / Cameron Monaghan, Дженніфер Джейсон Лі / Jennifer Jason Leigh, Дженніфер Моррісон / Jennifer Morrison, МакКенна Ґрейс / Mckenna Grace, Томас Манн / Thomas Mann, Кертвуд Сміт / Kurtwood Smith, Тейлор Спрейтлер / Taylor Spreitler, Хантер Голігоскі / Hunter Goligoski, Ден Мартіно / Dan Martino та інші
DIRECTOR                    : Франк Хальфун / Franck Khalfoun
GENRE                       : трилер, жахи
SYNOPSIS                    : У той самий будинок в місті Амітвіллі переїжджає мати-одиначка Джоан та троє її дітей. Молодша Джульєтта ще зовсім маленька і всьому рада, а ось Белла не в захваті від переїзду і зміни школи. Брат-близнюк Белли Джеймс давно знаходиться в комі. За запевненням лікарів, вийти з цього стану і повернутися до нормального життя він ніколи не зможе. З переїздом до нової оселі стан хлопця змінюється...
Url                         : https://toloka.to/t85816

Video
ID                          : 1
Format                      : AVC
Format/Info                 : Advanced Video Codec
Format profile              : [email protected]
Format settings             : CABAC / 3 Ref Frames
Format settings, CABAC      : Yes
Format settings, ReFrames   : 3 frames
Format settings, GOP        : M=3, N=12
Codec ID                    : V_MPEG4/ISO/AVC
Duration                    : 1 h 27 min
Bit rate mode               : Variable
Bit rate                    : 13.6 Mb/s
Maximum bit rate            : 35.0 Mb/s
Width                       : 1 920 pixels
Height                      : 1 080 pixels
Display aspect ratio        : 16:9
Frame rate mode             : Constant
Frame rate                  : 23.976 (24000/1001) FPS
Standard                    : NTSC
Color space                 : YUV
Chroma subsampling          : 4:2:0
Bit depth                   : 8 bits
Scan type                   : Progressive
Bits/(Pixel*Frame)          : 0.273
Stream size                 : 8.25 GiB (80%)
Title                       : Жах Амітівілля: Пробудження / Amityville: The Awakening (2017) Remux [US Transfer]
Language                    : English
Default                     : Yes
Forced                      : No
Color range                 : Limited
Color primaries             : BT.709
Transfer characteristics    : BT.709
Matrix coefficients         : BT.709

Audio #1
ID                          : 2
Format                      : AC-3
Format/Info                 : Audio Coding 3
Codec ID                    : A_AC3
Duration                    : 1 h 27 min
Bit rate mode               : Constant
Bit rate                    : 192 kb/s
Channel(s)                  : 2 channels
Channel positions           : Front: L R
Sampling rate               : 48.0 kHz
Frame rate                  : 31.250 FPS (1536 SPF)
Bit depth                   : 16 bits
Compression mode            : Lossy
Stream size                 : 120 MiB (1%)
Title                       : Dub [Tretyakoff production, Megogo] 2.0 [stereo] 192 Kbps
Language                    : Ukrainian
Service kind                : Complete Main
Default                     : Yes
Forced                      : Yes

Audio #2
ID                          : 3
Format                      :
Format/Info                 : Digital Theater Systems
Format profile              : MA / Core
Codec ID                    : A_DTS
Duration                    : 1 h 27 min
Bit rate mode               : Variable / Constant
Bit rate                    : 3 172 kb/s / 1 509 kb/s
Channel(s)                  : 6 channels
Channel positions           : Front: L C R, Side: L R, LFE
Sampling rate               : 48.0 kHz
Frame rate                  : 93.750 FPS (512 SPF)
Bit depth                   : 24 bits
Compression mode            : Lossless / Lossy
Stream size                 : 1.93 GiB (19%)
Title                       : Original, -HD MA 5.1 3172 Kbps
Language                    : English
Default                     : No
Forced                      : No

Text #1
ID                          : 4
Format                      : UTF-8
Codec ID                    : S_TEXT/UTF8
Codec ID/Info               : UTF-8 Plain Text
Duration                    : 1 h 21 min
Bit rate                    : 39 b/s
Count of elements           : 866
Stream size                 : 23.4 KiB (0%)
Title                       : Eng full
Language                    : English
Default                     : No
Forced                      : No

Text #2
ID                          : 5
Format                      : UTF-8
Codec ID                    : S_TEXT/UTF8
Codec ID/Info               : UTF-8 Plain Text
Duration                    : 1 h 25 min
Bit rate                    : 48 b/s
Count of elements           : 1229
Stream size                 : 30.4 KiB (0%)
Title                       : Eng SDH
Language                    : English
Default                     : No
Forced                      : No

Menu
00:00:00.000                : en:Chapter 1
00:01:37.430                : en:Chapter 2
00:06:23.883                : en:Chapter 3
00:11:18.719                : en:Chapter 4
00:17:59.995                : en:Chapter 5
00:23:22.192                : en:Chapter 6
00:29:34.522                : en:Chapter 7
00:34:45.291                : en:Chapter 8
00:39:14.060                : en:Chapter 9
00:45:24.972                : en:Chapter 10
00:49:53.740                : en:Chapter 11
00:55:09.014                : en:Chapter 12
01:00:30.001                : en:Chapter 13
01:07:06.105                : en:Chapter 14
01:14:40.142                : en:Chapter 15
01:22:31.738                : en:Chapter 16


Джерело: &
Подяка uafilm.tv та Electroz'у українську доріжку.


Золотий реліз (завантажене не впливає на рейтинг)
 Трекер:    Зареєстрований   

Завантажити / скачати фільм українською



відео для новачків



 Зареєстрований:   2017-12-11 23:42
 Розмір:   10.3 GB 
 Оцінка фільму:   4.4/10 (Голосів: 18)
   
Sacramental 
Свій


З нами з: 24.11.16
Востаннє: 27.09.20
Повідомлень: 52

2017-12-12 01:03  
Чомусь не дуже сподобався фільм... І сам не знаю чому!!!
ZZot 
Новенький


З нами з: 30.01.13
Востаннє: 09.05.20
Повідомлень: 12

2017-12-25 23:40  
бездарна стрічка, яка не варта уваги.
але за переклад українською, дякую

Uberwinder 
VIP


З нами з: 18.11.16
Востаннє: 27.09.20
Повідомлень: 280

2018-01-29 07:43  
Нуднуватий фільм, ледь втримався, щоб не заснути при перегляді.
Anonymous 







2020-03-24 15:37  
Цитата:
Останній раз роздавалося Dr.S (2019-12-25)

роздачу відновлено

Ваш часовий пояс: GMT + 2 Години

Нова тема   Відповісти