Жах Амітівілля: Пробудження / Amityville: The Awakening (2017) Ukr/Eng

Нові коментарі

Нова тема   Відповісти
Автор Повідомлення
Anonymous 







2017-12-11 20:57  
Жах Амітівілля: Пробудження / Amityville: The Awakening (2017) Ukr/Eng

Жах Амітівілля: Пробудження / Amityville: The Awakening (2017) Ukr/Eng

Жанр: трилер, жахи
Країна: США



Кінокомпанія: Miramax Films, Dimension Films, Blumhouse Productions
Режисер: Франк Хальфун / Franck Khalfoun
Актори: Белла Торн / Bella Thorne, Камерон Монаген / Cameron Monaghan, Дженніфер Джейсон Лі / Jennifer Jason Leigh, Дженніфер Моррісон / Jennifer Morrison, МакКенна Ґрейс / Mckenna Grace, Томас Манн / Thomas Mann, Кертвуд Сміт / Kurtwood Smith, Тейлор Спрейтлер / Taylor Spreitler, Хантер Голігоскі / Hunter Goligoski, Ден Мартіно / Dan Martino та інші

Сюжет:
У той самий будинок в місті Амітвіллі переїжджає мати-одиначка Джоан і троє її дітей. Молодша Джульєтта ще зовсім маленька і всьому рада, а ось Белла не в захваті від переїзду і зміни школи. Брат-близнюк Белли Джеймс давно знаходиться в комі. За запевненням лікарів, вийти з цього стану і повернутися до нормального життя він ніколи не зможе. З переїздом до нової оселі стан хлопця змінюється.
Офіційний український трейлер:


Рейтинг MPAA: PG-13 - дітям до 13 років перегляд не бажаний
Вікова категорія: 16+
Тривалість: 01:27:04
Якість:
Відео:
кодек:
розмір кадру: 720х304
бітрейт: 1922 кб/с

Аудіо # 1:
мова: українська
переклад: професійний дубльований | студія Tretyakoff production
кодек: 2.0 [стерео]
бітрейт: 192 кб/с

Аудіо # 2:
мова: англійська
переклад: оригінал
кодек: 2.0
бітрейт: 256 кб/с
Info
Код:
General
Complete name               : Amityville. The Awakening (2017) [Ukr,Eng] [Hurtom].avi
Format                      : AVI
Format/Info                 : Audio Video Interleave
File size                   : 1.45 GiB
Duration                    : 1 h 27 min
Overall bit rate            : 2 384 kb/s
Movie name                  : Жах Амітівілля: Пробудження / Amityville: The Awakening (2017) [Hurtom]
Genre                       : трилер, жахи
Writing application         : VirtualDubModUkr 1.5.10.2 (build 2542/release)
Writing library             : VirtualDubMod build 2542/release
Comment                     : https://toloka.to/t85814

Video
ID                          : 0
Format                      : MPEG-4 Visual
Format profile              : Advanced [email protected]
Format settings             : BVOP1 / Custom Matrix
Format settings, BVOP       : 1
Format settings, QPel       : No
Format settings, GMC        : No warppoints
Format settings, Matrix     : Custom
Codec ID                    :
Codec ID/Hint               :
Duration                    : 1 h 27 min
Bit rate                    : 1 922 kb/s
Width                       : 720 pixels
Height                      : 304 pixels
Display aspect ratio        : 2.35:1
Frame rate                  : 23.976 (24000/1001) FPS
Color space                 : YUV
Chroma subsampling          : 4:2:0
Bit depth                   : 8 bits
Scan type                   : Progressive
Compression mode            : Lossy
Bits/(Pixel*Frame)          : 0.366
Stream size                 : 1.17 GiB (81%)
Writing library             : 73

Audio #1
ID                          : 1
Format                      : AC-3
Format/Info                 : Audio Coding 3
Codec ID                    : 2000
Duration                    : 1 h 27 min
Bit rate mode               : Constant
Bit rate                    : 192 kb/s
Channel(s)                  : 2 channels
Channel positions           : Front: L R
Sampling rate               : 48.0 kHz
Frame rate                  : 31.250 FPS (1536 SPF)
Bit depth                   : 16 bits
Compression mode            : Lossy
Stream size                 : 120 MiB (8%)
Alignment                   : Split accross interleaves
Interleave, duration        : 42  ms (1.00 video frame)
Interleave, preload duratio : 500  ms
Title                       : UKR DUB [Tretykoff production, megogo]
Service kind                : Complete Main

Audio #2
ID                          : 2
Format                      : AC-3
Format/Info                 : Audio Coding 3
Codec ID                    : 2000
Duration                    : 1 h 27 min
Bit rate mode               : Constant
Bit rate                    : 256 kb/s
Channel(s)                  : 2 channels
Channel positions           : Front: L R
Sampling rate               : 48.0 kHz
Frame rate                  : 31.250 FPS (1536 SPF)
Bit depth                   : 16 bits
Compression mode            : Lossy
Stream size                 : 159 MiB (11%)
Alignment                   : Split accross interleaves
Interleave, duration        : 42  ms (1.00 video frame)
Interleave, preload duratio : 500  ms
Title                       : Original ENG
Service kind                : Complete Main


Джерело: &
Подяка uafilm.tv та Electroz'у українську доріжку.


 Трекер:    Зареєстрований   

Завантажити / скачати фільм українською



відео для новачків



 Зареєстрований:   2017-12-11 21:07
 Розмір:   1.45 GB 
 Оцінка фільму:   5.7/10 (Голосів: 30)
   
Ванько 
VIP


З нами з: 27.08.09
Востаннє: 18.04.19
Повідомлень: 364

2017-12-12 22:08  
Це просто жах. У переносному значенні. Нічого цікавого, окрім сідниць Белли не виявлено.
Upd. А ще під час перегляду придумався фразеологізм - "вбити мертвого собаку" (типу утнути щось безглузде).

Patchanuty 
Забанено
Забанено


З нами з: 13.12.17
Востаннє: 13.12.17
Повідомлень: 2

2017-12-13 06:06  
Мені дуже подобається цей фільм. Це фільм, який мене злякає до смерті.
Ваш часовий пояс: GMT + 2 Години

Нова тема   Відповісти